<?xml version="1.0" standalone="no"?>
<!DOCTYPE svg PUBLIC "-//W3C//DTD SVG 1.1//EN" "http://www.w3.org/Graphics/SVG/1.1/DTD/svg11.dtd">
<svg xmlns="http://www.w3.org/2000/svg">
<metadata>Generated by Fontastic.me</metadata>
<defs>
<font id="clothes" horiz-adv-x="512">
<font-face font-family="clothes" units-per-em="512" ascent="480" descent="-32"/>
<missing-glyph horiz-adv-x="512" />

<glyph unicode="&#97;" d="M281 0l-50 0c-3 0-5 1-7 3-2 2-3 5-3 8 0 1 1 45-26 73-14 16-36 24-63 24-6 0-10 4-10 10l0 29c0 6 4 11 10 11l248 0c6 0 10-5 10-11l0-29c0-6-4-10-10-10-27 0-49-8-64-24-26-28-25-72-25-73 0-3-1-6-3-8-2-2-4-3-7-3z m-39 21l28 0c1 18 7 52 31 78 17 18 40 28 68 30l0 8-226 0 0-8c28-2 51-12 68-30 24-26 30-60 31-78z m-121 371c-6 0-10 4-10 10l0 99c0 6 4 11 10 11 6 0 11-5 11-11l0-99c0-6-5-10-11-10z m233-149c-39 0-83 21-98 29-15-8-59-29-98-29-25 0-44 8-56 24-20 26-21 68-5 131 1 4 4 7 8 7 1 0 7 1 16 1 24 0 84-6 135-63 51 57 111 63 135 63 9 0 15-1 16-1 4 0 7-3 8-7 16-63 15-105-5-131-12-16-31-24-56-24z m-98 52c2 0 4-1 5-2 1 0 52-28 93-28 18 0 31 5 39 15 14 19 15 55 3 105-1 0-3 0-5 0-23 0-80-6-127-65-4-5-12-5-16 0-47 59-104 65-127 65-2 0-4 0-5 0-12-50-11-86 3-105 8-10 21-15 39-15 41 0 92 28 93 28 1 1 3 2 5 2z m135 97c-6 0-11 4-11 10l0 99c0 6 5 11 11 11 6 0 10-5 10-11l0-99c0-6-4-10-10-10z"/>
<glyph unicode="&#98;" d="M191 0c0 0-1 0-2 0-24 1-41 1-45 1-3-1-6-1-8 0-4 1-7 6-7 10 0 1 0 2 0 2l0 155-19-103c-1-5-5-9-11-9l-70 3c-3 0-6 1-8 4-2 2-3 5-3 8 2 12 26 295 80 374 1 1 3 2 4 3l75 37 35 25c3 3 8 3 12 0 3-2 5-7 4-11 0-1-25-118 38-259 0-1 1-2 1-4l0-85c-1-16-11-151-76-151z m-40 23c9 0 22-1 39-2l1 0c38 0 52 97 54 130l0 83c-47 108-46 201-41 244l-16-10c0-1 0-1-1-1l-73-37c-44-68-68-297-73-350l50-2 38 210c1 6 6 9 12 9 5-1 9-5 9-11l0-263c1 0 1 0 1 0z m99 201c-2 0-5 1-7 2-88 75-91 227-91 234 0 6 4 10 10 10 6 0 11-4 11-10 0-2 4-149 84-217 4-4 5-11 1-15-2-3-5-4-8-4z m-38-68l-50 0c-5 0-10 5-10 10 0 6 5 11 10 11l50 0c6 0 11-5 11-11 0-5-5-10-11-10z m109-156c-65 0-75 135-76 150l0 86c0 2 1 3 1 4 63 141 38 258 38 259-1 4 1 9 4 11 4 3 9 3 12 0l35-25 75-37c1-1 3-2 4-3 54-79 79-362 80-374 0-3-1-6-3-8-2-3-5-4-8-4l-70-3c-5 0-10 4-11 9l-19 103 0-155c0 0 0-1 0-2 0-4-3-9-7-10-2-1-6-1-8 0-2 0-4 0-7 0-9 0-22 0-38-1-1 0-2 0-2 0z m-54 234l0-83c2-33 16-130 54-130l1 0c17 1 31 2 40 2l0 263c0 6 4 10 9 11 6 0 11-3 12-9l38-210 50 2c-5 53-29 282-73 350l-73 37c-1 0-1 0-1 1l-16 10c5-43 6-136-41-244z m-5-10c-3 0-6 1-8 4-4 4-3 11 1 15 81 68 84 215 84 217 0 6 5 11 11 10 6 0 10-4 10-10 0-7-3-159-91-234-2-1-5-2-7-2z m88-68l-50 0c-6 0-11 5-11 10 0 6 5 11 11 11l50 0c5 0 10-5 10-11 0-5-5-10-10-10z m-56 335l-74 0c-6 0-11 4-11 10 0 6 5 11 11 11l74 0c6 0 10-5 10-11 0-6-4-10-10-10z"/>
<glyph unicode="&#99;" d="M188 421c-5 0-10 3-11 9l-11 70c-1 5 3 11 8 12 6 1 12-3 13-9l11-70c1-6-3-11-8-12-1 0-2 0-2 0z m68-421c-108 0-155 27-157 28-2 1-4 3-5 5-20 44 1 86 21 108l-6 4c-3 2-5 4-5 7-9 53 62 119 70 127 2 1 4 2 6 3 0 0 4 1 6 5 2 4 4 16-14 46-42 70 2 106 3 107 2 1 4 2 7 2 42-1 63-11 74-20 11 9 32 19 74 20 3 0 5-1 7-2 1-1 45-37 3-107-19-30-16-43-14-46 2-4 6-5 6-5 2-1 4-2 6-3 8-8 79-74 70-127 0-3-2-5-5-7l-6-4c20-22 41-64 21-108-1-2-3-4-5-5-2-1-49-28-157-28z m-144 45c12-5 57-24 144-24 87 0 132 19 144 24 20 50-26 90-26 90-3 2-4 6-4 9 0 3 2 6 5 8l12 8c1 34-42 83-62 101-5 2-13 6-18 16-8 16-3 38 15 67 26 44 11 69 4 77-52-3-60-19-60-20-1-4-5-7-10-7-5 0-9 3-10 8 0 0 0 0 0 0 0 0-9 16-61 19-6-8-21-33 5-77 18-29 23-51 15-67-5-10-13-14-18-16-20-18-63-67-62-101l12-8c3-2 5-5 5-8 0-3-1-7-4-9-1-1-46-41-26-90z m212 376c0 0-1 0-2 0-5 1-9 6-8 12l11 70c1 6 7 10 13 9 5-1 9-7 8-12l-11-70c-1-6-6-9-11-9z"/>
<glyph unicode="&#100;" d="M188 43c-2 0-3 0-4 1-146 59-182 255-184 263-1 6 3 11 9 12 6 1 11-2 12-8 1-2 36-193 171-248 5-2 8-8 6-13-2-5-6-7-10-7z m126 0l-116 0c-2 0-5 1-7 3-2 2-3 5-3 8 0 10 13 228-179 253-3 0-6 2-7 4-2 3-2 6-2 9l41 141c1 5 5 8 10 8l410 0c5 0 9-3 10-8l41-141c0-3 0-6-2-9-1-2-4-4-7-4-191-25-179-243-179-253 0-3-1-6-3-8-2-2-5-3-7-3z m-105 21l94 0c-1 48 10 231 185 262l-35 122-394 0-35-122c174-31 185-214 185-262z m115-21c-4 0-8 2-10 7-2 5 1 11 6 13 135 55 170 246 171 248 1 6 6 9 12 8 6-1 10-6 9-12-2-8-38-204-184-263-1-1-2-1-4-1z"/>
<glyph unicode="&#101;" d="M79 103c-3 0-6 1-8 4-45 53-18 117-8 136-37 66 41 159 44 163 2 2 5 3 8 3 3 0 6-1 8-3l111-121c4-5 3-11-1-15-4-4-11-4-15 0l-102 112c-18-24-61-90-32-133 2-3 2-8 0-11-2-3-37-61-3-110l130 80c5 4 11 2 14-3 3-5 2-12-3-15l-138-86c-1-1-3-1-5-1z m-46 19c-1 0-2 0-2 0-6 1-9 5-11 8-10 13-17 33-19 47-2 16-1 35 1 50 2 14 7 36 18 47-1 1-2 3-2 5-2 3-3 6-4 10-3 9-4 17-5 24-1 19-1 39 9 58 6 11 16 29 35 27 1 0 45-7 49-25 1-6-3-11-8-13-5-1-10 2-12 6-5 4-23 10-31 10-5 1-8-4-14-14-8-15-7-30-6-48 0-6 1-12 3-19 1-2 2-5 3-7 3-6 6-12 6-19 0-5-4-10-9-11-2-1-8-14-11-34-2-14-2-31-1-45 1-9 7-23 13-32l0 0c6 5 13 10 22 12 6 2 12-2 13-7 1-6-2-12-8-13-5-2-9-5-13-9l-4-3c-4-2-8-5-12-5z m400-19c-2 0-4 0-5 1l-138 86c-5 4-7 10-4 15 4 5 10 7 15 4l130-81c34 50-3 109-3 110-2 3-2 8 0 11 29 43-14 109-32 133l-103-113c-4-5-11-5-15-1-5 4-5 11-1 15l112 123c2 2 5 3 8 3 3 0 6-1 8-4 3-4 81-96 44-162 10-19 37-83-8-136-2-3-5-4-8-4z m46 19c-4 0-8 3-12 5l-4 4c-4 3-8 6-13 8-6 1-9 7-8 13 2 5 7 9 13 7 9-2 16-7 22-12l0 0c7 10 12 23 13 32 1 14 1 31-1 45-3 20-9 33-12 34-4 1-8 6-8 11 0 7 3 13 6 19 1 2 2 5 3 7 2 7 3 13 3 19 1 18 2 33-6 47-6 11-9 16-14 15-8 0-26-6-31-10-2-4-7-7-12-6-5 2-9 7-8 13 4 18 49 25 49 25 19 2 29-16 35-26 10-20 10-40 9-59-1-9-3-18-5-24-1-4-2-7-4-10 0-2-1-4-2-5 11-11 16-33 18-47 2-16 3-34 1-50-2-14-9-34-18-46-3-4-6-8-12-9 0 0-1 0-2 0z m-223 51c-32 0-59 27-59 60 0 33 27 60 59 60 33 0 60-27 60-60 0-33-27-60-60-60z m0 98c-21 0-38-17-38-38 0-21 17-38 38-38 22 0 39 17 39 38 0 21-17 38-39 38z"/>
<glyph unicode="&#102;" d="M210 62c0 0 0 0-1 0l-187 15c-4 1-8 3-9 7-2 5-41 116 27 358 2 5 6 8 11 8l411 0c4 0 8-3 10-8 68-242 29-353 27-358-1-4-5-6-9-7l-187-15c-4 0-7 1-9 3l-38 39-38-39c-2-2-5-3-8-3z m-179 36l175-14 42 42c2 2 5 3 8 3 3 0 6-1 8-3l42-42 175 14c7 26 27 133-28 330l-394 0c-55-197-35-304-28-330z m225 10c-52 0-94 53-94 117 0 6 5 10 11 10 6 0 11-4 11-10 0-53 32-95 72-95 40 0 72 42 72 95 0 6 5 10 11 10 6 0 11-4 11-10 0-64-42-117-94-117z m217 264l-434 0c-6 0-11 5-11 11 0 6 5 11 11 11l434 0c6 0 11-5 11-11 0-6-5-11-11-11z"/>
<glyph unicode="&#103;" d="M501 0l-490 0c-6 0-11 5-11 11l0 349c0 5 3 9 7 10l109 41c6 2 12-1 14-6 2-6-1-12-6-14l-103-38 0-332 470 0 0 332-102 39c-5 2-8 8-6 14 2 5 8 8 14 6l108-42c4-1 7-5 7-10l0-349c0-6-5-11-11-11z m-370 260c-1 0-2 0-4 0-3 2-6 5-6 10l-10 166c0 3 1 6 3 8l48 45c2 2 5 3 8 3 3 0 5-1 7-3l87-97c4-5 4-11-1-15l-124-115c-2-2-5-2-8-2z m2 172l8-139 100 92-72 81z m64-425c0 0-1 0-1 0-6 1-10 6-9 12l41 264-37 43c-3 4-3 11 2 15 4 4 11 3 15-1l40-47c2-2 3-6 2-9l-42-268c-1-6-5-9-11-9z m184 253c-3 0-6 0-8 2l-124 115c-5 4-5 10-1 15l87 97c2 2 4 3 7 3 3 0 6-1 8-3l48-45c2-2 3-5 3-8l-10-166c0-5-3-8-6-10-2 0-3 0-4 0z m-110 125l100-92 8 139-36 34z m44-378c-6 0-10 4-11 9l-42 268c-1 3 0 7 2 9l40 47c4 4 11 5 15 1 5-4 5-11 2-15l-37-43 41-264c1-6-3-11-9-12 0 0-1 0-1 0z m25 466c-2 0-3 0-5 1-81 37-157 1-158 0-5-2-12 0-14 5-3 5-1 12 5 14 3 2 85 42 176 1 5-3 8-9 5-15-1-4-5-6-9-6z"/>
<glyph unicode="&#104;" d="M501 0l-68 0c-5 0-9 3-10 8l-42 165 2-120c0-1 0-2 0-3 0-5-4-10-10-10 0 0 0 0-1 0l-232 0c-3 0-6 1-8 3-2 2-3 5-3 8l2 122-42-165c-1-5-5-8-10-8l-68 0c-3 0-6 1-8 4-2 2-3 5-3 8 5 43 52 423 78 461 26 37 81 39 91 39l2 0c3 0 6-2 8-5l77-115 77 115c2 3 5 5 8 5l2 0c10 0 65-2 91-39 26-38 73-418 78-461 0-3-1-6-3-8-2-3-5-4-8-4z m-60 21l48 0c-20 162-56 415-73 439-17 26-55 30-69 31l-82-124c-4-6-14-6-18 0l-82 124c-15-1-52-6-69-31-17-24-53-277-73-439l48 0 61 246c2 5 7 8 12 8 5-1 9-5 9-11l-3-203 212 0-3 203c0 6 4 10 9 11 5 1 10-3 12-8z m-186 448c-51 0-85 22-87 23-5 4-6 10-3 15 3 5 10 6 15 3 2-2 69-44 154 1 5 3 11 1 14-5 3-5 1-11-5-14-32-17-62-23-88-23z m1-423c-6 0-11 5-11 11l0 310c0 6 5 11 11 11 6 0 11-5 11-11l0-310c0-6-5-11-11-11z m114 170l-77 0c-6 0-11 4-11 10 0 6 5 11 11 11l77 0c6 0 11-5 11-11 0-6-5-10-11-10z m-149 0l-77 0c-6 0-11 4-11 10 0 6 5 11 11 11l77 0c6 0 10-5 10-11 0-6-4-10-10-10z"/>
<glyph unicode="&#105;" d="M256 356c-1 0-2 1-3 1-66 23-89 103-90 106-2 6 1 12 7 13 6 2 12-1 13-7 1-1 22-73 76-92 6-2 9-8 7-13-1-5-6-8-10-8z m0 29c-2 0-3 1-5 1-51 27-64 108-65 111-1 6 3 11 9 12 6 1 11-3 12-8 0-1 13-74 54-96 5-2 7-9 4-14-1-4-5-6-9-6z m228-385l-54 0c-5 0-9 4-10 9l-51 291-12-45 25-204c0-4-2-9-6-11-30-13-67-16-93-16-14 0-24 1-27 1-3 0-13-1-27-1-26 0-63 3-93 16-4 2-6 7-6 11l25 204-12 45-51-291c-1-5-5-9-10-9l-54 0c-3 0-6 1-8 3-2 3-3 5-2 8 1 15 23 363 73 431 2 1 3 2 5 3l70 30 24 33c2 2 5 4 8 4l116 0c3 0 6-2 8-4l24-33 70-30c2-1 3-2 5-3 50-68 72-416 73-431 1-3 0-5-2-8-2-2-5-3-8-3z m-45 21l33 0c-7 105-30 351-67 406l-70 29c-2 1-4 2-5 4l-22 31-104 0-22-31c-1-2-3-3-5-4l-70-29c-37-55-60-301-67-406l33 0 57 330c1 5 5 9 10 9 5 0 10-3 11-8l25-94c1-1 1-3 1-4l-25-197c25-9 55-11 77-11 15 0 26 1 26 1 1 0 1 0 2 0 0 0 11-1 26-1 22 0 52 2 77 11l-25 197c0 1 0 3 1 4l25 94c1 5 6 8 11 8 5 0 9-4 10-9z m-183 4c-6 0-11 5-11 11l0 331c0 5 3 9 8 10 55 19 75 91 76 92 1 6 7 9 13 7 6-1 9-7 7-13-1-3-22-78-82-103l0-324c0-6-5-11-11-11z m0 360c-4 0-8 2-9 6-3 5-1 12 4 14 41 22 54 95 54 96 1 5 6 9 12 8 6-1 10-6 9-12-1-3-14-84-65-111-2 0-3-1-5-1z m-41-164c-6 0-11 4-11 10l0 161c0 6 5 11 11 11 5 0 10-5 10-11l0-161c0-6-5-10-10-10z m82 0c-5 0-10 4-10 10l0 161c0 6 5 11 10 11 6 0 11-5 11-11l0-161c0-6-5-10-11-10z"/>
<glyph unicode="&#106;" d="M221 105l-71 0c-6 0-11 5-11 11 0 6 5 11 11 11l71 0c6 0 11-5 11-11 0-6-5-11-11-11z m-19 147c-5 0-9 3-11 8-7 28 0 78 0 80 1 6 6 10 12 9 6-1 10-6 9-12 0 0-6-47 0-72 2-6-2-12-8-13 0 0-1 0-2 0z m289-252l-72 0c-4 0-7 2-9 5-2 3-3 6-1 10 30 76 9 154-10 199l0-183c0-6-5-11-10-11l-266 0c-5 0-10 5-10 11l0 183c-19-45-40-121-10-198 1-1 1-3 1-5 0-6-4-11-10-11 0 0 0 0-1 0l-72 0c-5 0-10 4-11 8-2 10-49 237 74 358 1 1 3 2 4 2l80 24c-1 19 0 64 25 94 15 17 36 26 63 26 0 0 0 0 0 0 27 0 48-9 63-26 25-30 26-75 25-94l80-24c1 0 3-1 4-2 123-121 76-348 74-358-1-4-6-8-11-8z m-57 21l48 0c8 42 32 227-67 328l-85 24c-5 2-8 7-8 12 0 1 7 57-19 87-11 12-27 19-47 19 0 0 0 0-1 0-19 0-35-7-46-19-26-30-19-86-19-87 0-5-3-10-8-11l-85-25c-99-101-75-286-67-328l48 0c-39 124 33 239 37 244 2 4 7 5 11 4 5-1 8-6 8-10l0-217 244 0 0 217c0 4 3 9 8 10 4 1 9 0 12-4 3-5 75-120 36-244z m-72 84l-71 0c-6 0-11 5-11 11 0 6 5 11 11 11l71 0c6 0 11-5 11-11 0-6-5-11-11-11z m-52 147c-1 0-1 0-2 0-6 2-10 7-8 13 6 25 0 72 0 72-1 6 3 11 9 12 6 1 11-3 12-9 0-2 7-52 0-80-2-5-6-8-11-8z m-54 54c-3 0-6 1-8 3-14 17-52 62-71 74-2 1-4 4-4 6-1 2-6 29 12 52 14 17 38 26 71 26 6 0 11-5 11-11 0-6-5-10-11-10-26 0-44-7-54-19-9-10-9-23-9-29 26-20 69-73 71-75 4-5 3-11-1-15-2-2-5-2-7-2z m0 0c-2 0-5 0-7 2-4 4-5 10-1 15 2 2 45 55 71 75 0 6 0 19-9 29-10 12-28 19-54 19-6 0-11 4-11 10 0 6 5 11 11 11 33 0 57-9 71-26 18-23 13-50 12-52 0-2-2-5-4-6-19-12-57-57-71-74-2-2-5-3-8-3z"/>
<glyph unicode="&#107;" d="M501 0l-490 0c-6 0-11 5-11 11l0 490c0 6 5 11 11 11l490 0c6 0 11-5 11-11l0-490c0-6-5-11-11-11z m-480 21l470 0 0 470-470 0z m235 224c-6 0-11 5-11 11l0 236c0 6 5 11 11 11 6 0 11-5 11-11l0-236c0-6-5-11-11-11z m-245 0c-5 0-9 3-10 7-2 5 0 12 6 14 161 65 135 218 134 224-1 6 3 11 8 12 6 2 12-2 13-8 0-2 30-176-147-248-2 0-3-1-4-1z m490 0c-1 0-2 1-4 1-177 72-147 246-147 248 1 6 7 10 13 8 5-1 9-6 8-12-1-6-27-159 134-224 6-2 8-9 6-14-1-4-5-7-10-7z"/>
<glyph unicode="&#108;" d="M206 435c-6 0-10 5-10 11l0 55c0 6 4 11 10 11 6 0 11-5 11-11l0-55c0-6-5-11-11-11z m50-435c-68 0-118 5-149 16-30 10-32 22-32 25 0 4 2 7 5 9 78 50 109 247 113 276-22 37-28 69-21 95 8 24 26 34 27 34 2 1 4 1 6 1 23-2 41-12 51-19 10 7 28 17 52 19 1 0 3 0 5-1 1 0 19-10 27-34 7-26 1-58-21-95 4-29 35-226 113-276 4-2 6-7 5-12-3-9-25-38-181-38z m-153 41c14-7 53-20 153-20 100 0 140 13 154 20-84 69-111 277-112 286-1 2 0 5 1 7 19 32 26 60 20 81-3 11-10 17-13 20-25-3-43-19-43-19-4-4-11-4-15 0 0 0-17 16-42 19-3-3-10-9-13-21-6-20 1-48 20-80 1-2 2-5 1-7-1-9-28-217-111-286z m203 394c-6 0-11 5-11 11l0 55c0 6 5 11 11 11 6 0 10-5 10-11l0-55c0-6-4-11-10-11z"/>
<glyph unicode="&#109;" d="M208 0c-1 0-2 0-4 1l-124 52c-5 2-7 8-6 14 1 1 48 137 1 238-2 3-1 7 1 10 0 1 55 82 24 154-1 2-1 5 0 8 1 3 4 5 6 6l85 28c3 1 6 1 9-1 2-1 4-4 5-7 0-1 11-93 59-142 2-2 3-5 3-7l0-304c0-3-2-6-4-8l-48-40c-2-1-4-2-7-2z m-110 69l109-46 38 32 0 294c-39 44-55 110-60 138l-61-21c23-68-16-138-27-158 40-93 11-206 1-239z m101 56l-57 0c-6 0-11 5-11 11 0 6 5 11 11 11l57 0c6 0 11-5 11-11 0-6-5-11-11-11z m105-125c-3 0-5 1-7 2l-48 40c-2 2-4 5-4 8l0 304c0 2 1 5 3 7 48 49 59 141 59 142 1 3 3 6 5 7 3 2 6 2 9 1l85-28c2-1 5-3 6-6 1-3 1-6 0-8-31-72 24-153 24-154 2-3 3-7 1-10-47-102 0-237 1-238 1-6-1-12-6-14l-124-52c-2-1-3-1-4-1z m-37 55l38-32 109 46c-10 33-39 146 1 239-11 20-50 89-27 158l-61 21c-5-28-21-94-60-138z m103 70l-57 0c-6 0-11 5-11 11 0 6 5 11 11 11l57 0c6 0 11-5 11-11 0-6-5-11-11-11z m0 186l-57 0c-6 0-11 5-11 11 0 6 5 11 11 11l57 0c6 0 11-5 11-11 0-6-5-11-11-11z m-57 180l-119 0c-6 0-11 4-11 10 0 6 5 11 11 11l119 0c6 0 11-5 11-11 0-6-5-10-11-10z"/>
<glyph unicode="&#110;" d="M149 231c-55 0-100 35-100 78 0 43 45 78 100 78 55 0 100-35 100-78 0-43-45-78-100-78z m0 135c-43 0-79-26-79-57 0-31 36-57 79-57 44 0 79 26 79 57 0 31-35 57-79 57z m214-135c-55 0-101 35-101 78 0 43 46 78 101 78 55 0 100-35 100-78 0-43-45-78-100-78z m0 135c-44 0-79-26-79-57 0-31 35-57 79-57 43 0 79 26 79 57 0 31-36 57-79 57z m-234-1c-6 0-10 5-10 10l0 126c0 6 4 11 10 11 6 0 11-5 11-11l0-126c0-5-5-10-11-10z m254 0c-6 0-11 5-11 10l0 126c0 6 5 11 11 11 6 0 10-5 10-11l0-126c0-5-4-10-10-10z m-112-71l-30 0c-6 0-11 5-11 11 0 6 5 11 11 11l30 0c6 0 11-5 11-11 0-6-5-11-11-11z m19-294l-68 0c-4 0-7 2-9 6-1 1-48 93-145 117-5 1-8 6-7 12l8 50c1 3 3 6 6 8 3 1 6 1 9 0 1 0 70-33 170-33 59 0 117 11 172 33 3 1 6 1 9 0 3-2 5-4 5-7l11-51c1-6-1-11-6-13-1 0-113-47-145-116-2-4-5-6-10-6z m-61 21l55 0c33 63 118 105 145 118l-7 30c-54-20-111-30-168-30-81 0-141 19-166 29l-5-27c87-26 134-98 146-120z"/>
<glyph unicode="&#111;" d="M147 398c-6 0-11 4-11 10l0 93c0 6 5 11 11 11 6 0 11-5 11-11l0-93c0-6-5-10-11-10z m266-398l-314 0c-3 0-6 1-8 4-2 2-3 5-3 8 1 5 14 130 54 180 9 11 13 23 11 35-2 22-24 40-24 40-1 1-2 2-3 4-2 4-45 100 8 138 2 1 3 2 5 2 0 0 5 1 12 1 21 0 71-7 105-69 34 62 84 69 105 69 7 0 12-1 12-1 2 0 3-1 5-2 53-38 10-134 8-138-1-2-2-3-3-4 0 0-22-18-24-41-2-11 2-23 11-34 40-50 53-175 54-180 0-3-1-6-3-8-2-3-5-4-8-4z m-302 21l290 0c-4 32-18 121-48 158-12 16-17 32-15 50 3 27 23 47 30 53 10 24 28 84-1 108-12 1-68 3-101-76-2-4-6-6-10-6-4 0-8 2-10 6-33 79-89 77-101 76-32-26-6-95 0-108 6-6 26-26 29-53 2-18-3-34-15-50-30-37-44-126-48-158z m254 377c-6 0-11 4-11 10l0 93c0 6 5 11 11 11 6 0 11-5 11-11l0-93c0-6-5-10-11-10z m-14-156c-1 0-2 0-4 1-96 35-178 0-178 0-6-2-12 0-14 5-3 6 0 12 5 15 4 1 90 37 195 0 5-2 8-8 6-14-2-4-6-7-10-7z"/>
<glyph unicode="&#112;" d="M501 0l-68 0c-6 0-10 4-11 9l-36 248c-14-98-1-225 1-243 0-1 0-2 0-3 0-6-5-11-10-11 0 0-1 0-1 0l-240 0c-3 0-6 1-8 4-2 2-3 5-3 8 0 2 16 140 1 245l-36-248c-1-5-5-9-11-9l-68 0c-3 0-6 1-8 4-2 2-3 5-3 8l63 430c0 3 2 6 5 8l121 61c3 2 7 1 10-1 3-2 5-5 5-9 0-3 2-34 52-34 51 0 52 33 52 34 0 4 2 7 5 9 3 2 7 3 10 1l121-61c3-2 5-5 5-8l63-430c0-3-1-6-3-8-2-3-5-4-8-4z m-59 21l47 0-60 412-103 53c-6-17-23-40-70-40-47 0-64 23-70 40l-103-53-60-412 47 0 43 296c1 5 5 9 9 9 5 1 10-2 12-7 30-92 18-252 13-298l218 0c-5 46-17 206 13 298 2 5 7 8 12 7 4 0 8-4 9-9z"/>
<glyph unicode="&#113;" d="M256 0c-149 0-245 39-249 41-4 2-7 6-7 10 2 185 116 392 131 419l0 31c0 6 5 11 11 11l228 0c6 0 11-5 11-11l0-31c15-27 129-234 131-419 0-4-3-8-7-10-4-2-100-41-249-41z m-235 58c25-8 112-37 235-37 123 0 210 29 235 37-5 187-129 401-130 403-1 2-2 4-2 6l0 24-206 0 0-24c0-2-1-4-2-6-1-2-125-216-130-403z m235 359c-17 0-31 14-31 32 0 17 14 31 31 31 17 0 31-14 31-31 0-18-14-32-31-32z m0 42c-6 0-10-5-10-10 0-6 4-11 10-11 6 0 10 5 10 11 0 5-4 10-10 10z"/>
<glyph unicode="&#114;" d="M111 77c-1 0-2 0-2 1-6 1-10 7-8 12l38 166-93 7c-6 1-10 6-9 12 0 6 5 10 11 10l105-9c3 0 6-2 8-4 2-3 2-6 2-9l-42-177c-1-5-5-9-10-9z m-53 253c-4 0-8 2-10 6-2 5-1 11 4 14 93 54 90 147 90 151-1 6 4 11 10 11 5 0 11-4 11-10 0-5 5-110-100-170-2-1-3-2-5-2z m240-330c-4 0-9 3-10 8l-32 118-32-118c-2-5-7-9-12-8l-203 29c-3 0-5 2-7 4-2 2-2 5-2 8l72 462c1 5 5 9 11 9l346 0c6 0 10-4 11-9l72-462c0-3 0-6-2-8-2-2-4-4-7-4l-203-29c-1 0-1 0-2 0z m-42 177c5 0 9-3 10-8l40-146 183 25-69 443-328 0-69-443 183-25 40 146c1 5 5 8 10 8z m145-100c-5 0-9 4-10 8l-42 178c0 3 0 6 2 9 2 2 5 4 8 4l105 9c6 0 11-4 11-10 1-6-3-11-9-12l-93-7 38-166c2-5-2-11-7-12-1-1-2-1-3-1z m53 253c-1 0-3 1-5 2-105 60-100 165-100 170 0 6 5 10 11 10 6 0 11-5 10-11 0-4-3-97 90-151 5-3 7-9 4-14-2-4-6-6-10-6z m-198-40c-6 0-11 5-11 11l0 192c0 6 5 10 11 10 6 0 11-4 11-10l0-192c0-6-5-11-11-11z"/>
<glyph unicode="&#115;" d="M204 160c-7 0-17 4-41 13-6 2-10 4-13 4l-23 7c-11 3-22 7-34 10-24 7-48 10-80 10 0 0-1 0-1 0 0 0-1 0-1 0-6 0-11 5-11 10-2 62 32 130 47 156 24 44 54 86 104 88 42 3 80-13 109-44 3-4 7-9 11-13 14-17 27-32 48-37 20-4 37 2 56 10 9 4 19 8 29 11 20 5 58 15 82-6 33-29 27-75 22-111-1-12-3-22-3-32 0-8 0-16 0-24 0-10 1-21 0-32 0-5-4-10-10-10-16-1-33-1-49-1-21 1-43 1-63-1-3-1-6 0-8 2-2 2-3 5-4 8 0 15 0 31 0 46 0 7 0 13 0 20 0 4 0 8 1 13 0 17 1 35-9 45-13 12-30 10-49 8-21-3-44-6-62 12-20 22-45 36-65 39-4 1-6 0-7 0-3-3-3-15-3-22l0-4c0-33 2-54 14-80 8-17 12-35 16-53l4-13c1-4 2-9 4-13 2-5 0-10-4-13-2-2-4-3-7-3z m-183 65c30 0 54-4 78-10 12-4 23-7 35-10l22-7c3-1 8-3 15-5 4-2 12-5 18-7l-2 11c-4 17-9 34-16 49-14 33-15 58-15 89l0 4c0 14 0 29 10 38 6 5 14 7 24 5 36-5 66-33 78-45 9-10 22-9 43-6 22 2 47 5 66-13 18-17 17-42 16-62 0-4 0-8 0-12 0-7-1-14-1-21 0-11 0-22 0-33 18 1 36 1 54 1 13 0 26 0 38 0 0 7 0 14 0 21 0 8 0 16 0 25 0 10 2 21 3 33 5 35 9 72-15 93-14 12-38 8-63 1-9-2-17-6-26-9-21-9-42-18-69-12-28 7-44 26-60 44-3 4-7 8-10 12-24 27-57 40-92 38-39-2-65-38-87-77-26-47-42-97-44-135z m4-124c-5 0-9 4-10 9l-15 81c-1 6 3 12 9 13 6 1 11-3 12-9l15-82c1-5-3-11-9-12 0 0-1 0-2 0z m47-12c-5 0-10 4-11 9l-14 82c-1 5 2 11 8 12 6 1 12-3 13-9l14-81c1-6-3-12-8-13-1 0-2 0-2 0z m46-12c-5 0-9 4-10 9l-15 82c-1 5 3 11 9 12 5 1 11-3 12-9l15-81c1-6-3-12-9-13-1 0-1 0-2 0z m47-12c-6 0-10 4-11 9l-15 82c-1 5 3 11 9 12 6 1 11-3 12-9l15-81c1-6-3-12-9-13 0 0-1 0-1 0z m46-12c-5 0-10 4-11 9l-14 82c-1 6 3 11 8 12 6 1 12-3 13-8l14-82c1-6-2-11-8-13-1 0-1 0-2 0z m172 55c-6 0-11 4-11 10l0 34c0 6 5 11 11 11 6 0 11-5 11-11l0-34c0-6-5-10-11-10z m35 0c-5 0-10 4-10 10l0 34c0 6 5 11 10 11 6 0 11-5 11-11l0-34c0-6-5-10-11-10z m36 0c-6 0-11 4-11 10l0 34c0 6 5 11 11 11 6 0 11-5 11-11l0-34c0-6-5-10-11-10z m36 0c-6 0-11 4-11 10l0 34c0 6 5 11 11 11 5 0 10-5 10-11l0-34c0-6-5-10-10-10z"/>
<glyph unicode="&#116;" d="M385 0c0 0 0 0 0 0l-258 0c-3 0-6 1-8 4-2 2-3 6-2 9l46 242-20 53-43-206c-1-5-5-8-10-8l-58 0c-3 0-5 1-7 3-2 2-3 5-3 8 1 11 20 264 88 334 18 18 73 51 82 56l13 14c2 2 5 3 8 3l86 0c3 0 6-1 8-3l13-14c9-5 64-38 82-56 68-70 87-323 88-334 0-3-1-6-3-8-2-2-4-3-7-3l-58 0c-5 0-9 3-10 8l-43 206-20-53 46-240c0-2 1-3 1-4 0-6-5-11-11-11z m-245 21l232 0-44 233c-1 2 0 4 0 6l33 91c2 4 6 7 11 7 5-1 9-4 10-9l49-234 37 0c-5 50-26 252-82 309-14 14-61 43-79 54-1 0-1 1-2 2l-10 11-78 0-10-11c-1-1-2-2-2-2-18-11-65-40-80-54-55-57-76-259-81-309l37 0 49 234c1 5 5 8 10 9 5 0 9-3 11-7l33-91c0-2 0-4 0-6z m116 198c-23 0-41 16-41 37 0 21 18 37 41 37 23 0 41-16 41-37 0-21-18-37-41-37z m0 53c-11 0-20-7-20-16 0-9 9-16 20-16 11 0 20 7 20 16 0 9-9 16-20 16z m-30-27l-53 0c-6 0-11 5-11 11 0 6 5 11 11 11l53 0c6 0 10-5 10-11 0-6-4-11-10-11z m113 0l-53 0c-6 0-10 5-10 11 0 6 4 11 10 11l53 0c6 0 11-5 11-11 0-6-5-11-11-11z m-148 116c-1 0-3 0-4 1-4 1-6 5-7 8l-8 98c-1 6 4 11 10 12 6 0 11-4 11-10l7-79 51 38c4 3 11 2 15-2 3-5 2-12-3-15l-66-49c-1-2-4-2-6-2z m130 0c-2 0-5 0-6 2l-66 49c-5 3-6 10-3 15 4 4 11 5 15 2l51-38 7 79c0 6 6 10 11 10 6-1 11-6 10-12l-8-98c-1-3-3-7-7-8-1-1-3-1-4-1z m-66 61c-32 0-58 33-58 74 0 6 4 10 10 10 6 0 11-4 11-10 0-29 17-53 37-53 20 0 37 24 37 53 0 6 4 10 10 10 6 0 11-4 11-10 0-41-26-74-58-74z m-32-79c-6 0-11 4-11 10l0 7c0 5 5 10 11 10 5 0 10-5 10-10l0-7c0-6-5-10-10-10z m0-45c-6 0-11 5-11 11l0 6c0 6 5 11 11 11 5 0 10-5 10-11l0-6c0-6-5-11-10-11z m66 45c-5 0-10 4-10 10l0 7c0 5 5 10 10 10 6 0 11-5 11-10l0-7c0-6-5-10-11-10z m0-45c-5 0-10 5-10 11l0 6c0 6 5 11 10 11 6 0 11-5 11-11l0-6c0-6-5-11-11-11z m-66-129c-6 0-11 4-11 10l0 7c0 5 5 10 11 10 5 0 10-5 10-10l0-7c0-6-5-10-10-10z m0-45c-6 0-11 5-11 11l0 6c0 6 5 11 11 11 5 0 10-5 10-11l0-6c0-6-5-11-10-11z m66 45c-5 0-10 4-10 10l0 7c0 5 5 10 10 10 6 0 11-5 11-10l0-7c0-6-5-10-11-10z m0-45c-5 0-10 5-10 11l0 6c0 6 5 11 10 11 6 0 11-5 11-11l0-6c0-6-5-11-11-11z m-66-49c-6 0-11 5-11 11l0 6c0 6 5 11 11 11 5 0 10-5 10-11l0-6c0-6-5-11-10-11z m66 0c-5 0-10 5-10 11l0 6c0 6 5 11 10 11 6 0 11-5 11-11l0-6c0-6-5-11-11-11z"/>
<glyph unicode="&#117;" d="M442 0c0 0 0 0 0 0l-372 0c-4 0-7 2-9 5-2 3-2 7-1 11 1 1 77 149 43 313l-53-8c-5-1-10 2-11 7l-38 104c-2 4-1 9 3 12 3 2 83 65 159 68 2 0 5-1 7-3 2-2 4-5 4-8 0-4 2-98 82-98 80 0 82 94 82 98 0 3 2 6 4 8 2 2 5 3 7 3 76-3 156-66 159-68 4-3 5-8 3-12l-38-104c-1-5-6-8-11-7l-53 8c-32-155 34-296 42-312 1-2 2-4 2-6 0-6-5-11-11-11z m-355 21l338 0c-19 45-68 177-34 322 1 6 6 9 12 8l53-8 33 89c-19 13-75 52-130 58-4-43-29-109-103-109-74 0-99 66-103 109-55-6-111-45-130-58l33-89 53 8c6 1 11-2 12-8 34-145-15-277-34-322z"/>
<glyph unicode="&#118;" d="M398 0l-284 0c-3 0-6 1-8 4-22 26-32 56-30 89 8 91 107 178 122 192 4 8 16 45-14 81-35 42-21 82-8 98 1 2 3 3 6 4 1 0 42 9 74-28 32 37 73 28 74 28 3-1 5-2 6-4 13-15 27-56-8-98-29-36-18-72-14-81 16-14 114-101 122-192 2-33-8-63-30-89-2-3-5-4-8-4z m-279 21l274 0c16 21 23 45 21 71-7 87-115 177-116 178-1 1-2 2-3 4-1 2-26 54 17 105 27 33 15 59 10 69-11 0-38-1-57-32-4-6-14-6-18 0-19 31-46 32-57 32-5-10-17-37 10-69 43-51 18-103 17-105-1-2-2-3-3-4-1-1-109-91-116-178-2-26 5-50 21-71z m66 430c-6 0-11 5-11 11l0 39c0 6 5 11 11 11 6 0 10-5 10-11l0-39c0-6-4-11-10-11z m142 0c-6 0-10 5-10 11l0 39c0 6 4 11 10 11 6 0 11-5 11-11l0-39c0-6-5-11-11-11z"/>
<glyph unicode="&#119;" d="M256 319c-134 0-141 180-141 182 0 6 5 11 11 11 6 0 10-4 11-10 0-7 6-161 119-161 6 0 11-5 11-11 0-6-5-11-11-11z m186-319l-372 0c-4 0-7 2-9 4-2 3-2 6-2 9 1 2 42 153 75 234 29 74-64 166-81 177-3 2-5 5-5 8-1 3 1 6 3 9l69 68c2 2 5 3 8 3 3-1 6-2 8-4 0-1 43-51 120-51 75 0 120 50 121 51 2 2 4 3 7 4 3 0 6-1 8-3l69-68c3-3 4-6 3-9 0-3-2-6-5-8-17-11-110-103-81-177 33-81 74-232 75-234 0-3 0-6-2-9-2-2-5-4-9-4z m-358 21l344 0c-11 39-43 152-70 218-31 78 45 166 79 195l-52 52c-18-16-63-51-129-51-68 0-112 34-129 51l-52-52c34-29 110-117 78-195-26-66-58-179-69-218z m172 298c-6 0-11 5-11 11 0 6 5 11 11 11 114 0 119 159 119 161 1 6 5 10 11 10 6 0 11-5 11-11 0-2-7-182-141-182z m-7-314c-6 0-11 5-11 11l0 314c0 6 5 11 11 11 5 0 10-5 10-11l0-314c0-6-5-11-10-11z"/>
<glyph unicode="&#120;" d="M256 205c-5 0-9 3-10 8l-79 279c-2 6 2 12 7 14 6 1 12-2 14-8l78-279c2-6-1-12-7-13-1-1-2-1-3-1z m0-8c-4 0-7 2-9 6l-123 210c-2 3-2 7-1 10l19 47c2 6 9 9 14 6 6-2 8-8 6-13l-17-43 120-206c3-6 1-12-4-15-1-1-3-2-5-2z m143-197c-1 0-1 0-1 0l-284 0c-3 0-6 1-8 3-2 3-3 5-3 8 0 2 10 142 7 239-5-25-9-53-10-80-2-57-8-148-8-149 0-5-5-9-10-10l-68-2c-6-1-11 4-11 10-1 13-21 330 56 417 15 18 74 41 89 47l19 25c2 2 5 4 8 4l162 0c3 0 6-2 8-4l19-25c15-6 74-29 89-47 77-87 57-404 56-417 0-6-5-11-11-10l-68 2c-5 1-10 5-10 10 0 1-6 92-8 149-1 27-5 55-10 80-3-91 6-219 7-236 0-1 0-2 0-3 0-6-5-11-10-11z m-274 21l262 0c-3 48-14 230 1 301 1 5 5 8 10 8 6 0 9-3 11-8 0-3 21-81 24-151 2-46 6-114 8-139l47-2c3 56 13 320-51 392-10 12-56 32-83 42-2 1-4 2-5 4l-17 23-152 0-17-23c-1-2-3-3-5-4-27-10-73-30-83-42-64-72-54-336-51-392l47 2c2 25 6 93 8 139 3 70 24 148 24 151 2 5 6 8 11 8 5 0 9-3 10-8 15-71 4-253 1-301z m131 184c-1 0-2 0-3 1-6 1-9 7-7 13l78 279c2 6 8 9 14 8 5-2 9-8 7-14l-79-279c-1-5-5-8-10-8z m-44-202c-6 0-11 5-11 11l0 130c0 2 1 4 2 6l44 64 120 206-17 43c-2 5 0 11 6 13 5 3 12 0 14-6l19-47c1-3 1-7-1-10l-123-210-43-63 0-126c0-6-4-11-10-11z m31 111c-6 0-11 5-11 11l0 11c0 6 5 11 11 11 6 0 11-5 11-11l0-11c0-6-5-11-11-11z m0-51c-6 0-11 4-11 10l0 12c0 6 5 10 11 10 6 0 11-4 11-10l0-12c0-6-5-10-11-10z"/>
<glyph unicode="&#121;" d="M452 44c-2 0-4 1-6 2-39 26-65 74-80 108-10-56-26-90-27-91-1-4-5-7-9-7l-148 0c-4 0-8 3-9 7-1 1-17 35-27 91-15-34-41-82-80-108-3-2-7-3-11-1l-49 25c-4 2-6 6-6 11 1 9 19 230 125 313 1 0 2 1 3 1l60 23 13 42c1 5 5 8 10 8l90 0c5 0 9-3 10-8l13-42 60-23c1 0 2-1 3-1 106-83 124-304 125-313 0-4-2-9-6-11l-49-25c-2-1-3-1-5-1z m-430 42l37-19c54 41 82 132 82 132 2 5 7 9 12 8 5-1 9-5 9-10 6-60 21-104 27-119l134 0c6 15 21 59 27 119 0 5 4 9 9 10 5 1 10-3 12-8 0 0 28-91 82-132l37 19c-4 38-27 220-115 290l-63 24c-3 1-6 4-7 7l-12 40-74 0-12-40c-1-3-3-6-7-7l-63-24c-88-70-111-252-115-290z m234 271c-38 0-69 27-69 59 0 6 5 11 11 11 6 0 11-5 11-11 0-21 21-38 47-38 26 0 47 17 47 38 0 6 5 11 11 11 6 0 11-5 11-11 0-32-31-59-69-59z m-164-272c-1 0-3 0-4 1l-70 35c-5 3-8 9-5 14 3 6 9 8 14 5l70-35c5-2 7-9 5-14-2-4-6-6-10-6z m328 0c-4 0-8 2-10 6-2 5 0 12 5 14l70 35c5 3 11 1 14-5 3-5 1-11-5-14l-69-35c-2-1-4-1-5-1z m-78 7l-172 0c-6 0-11 5-11 11 0 5 5 10 11 10l172 0c6 0 11-5 11-10 0-6-5-11-11-11z"/>
<glyph unicode="&#122;" d="M216 276c-20 0-31 13-31 34 0 21 11 34 31 34 20 0 41-22 45-27 3-4 3-10 0-14-4-4-25-27-45-27z m0 47c-6 0-10-1-10-13 0-11 4-12 10-12 5 0 14 6 21 12-7 7-16 13-21 13z m40-323c-119 0-132 90-132 91 0 0 0 1 0 1l0 204c0 4 2 8 6 10 67 31 26 178 25 180-1 5 2 11 7 13l36 12c3 2 7 1 10-1 2-2 4-5 4-9 0-77 32-104 44-111 11 7 44 34 44 111 0 4 1 7 4 9 3 2 7 3 10 1l36-12c5-2 8-8 6-13 0-2-42-149 25-180 4-2 7-6 7-10l0-204c0 0 0-1-1-1 0-1-12-91-131-91z m-111 93c2-7 15-72 111-72 96 0 109 65 110 72l0 197c-65 38-41 157-33 192l-12 4c-6-95-59-117-61-118-3-1-6-1-8 0-3 1-56 24-61 118l-13-4c9-35 32-154-33-192z m151 183c-20 0-41 23-45 27-4 4-4 10 0 14 4 5 25 27 45 27 19 0 31-13 31-34 0-21-12-34-31-34z m-22 34c7-6 16-12 22-12 5 0 10 1 10 12 0 12-5 13-10 13-6 0-15-6-22-13z m-202-149c-3 0-5 1-7 3-5 4-5 11-1 15 6 7 5 27 4 40 0 4 0 8 0 11l0 3c0 11 0 21 10 33 8 9 21 16 33 19 8 1 14-1 18-3 2 0 4-1 6-1 5 0 10-4 11-10 0-6-4-11-10-11-6-1-10 1-14 2-3 1-5 2-7 2-8-2-16-7-21-12-4-5-5-9-5-19l0-3c0-3 1-6 1-10 1-19 2-42-10-55-2-2-5-4-8-4z m368 0c-3 0-6 2-8 4-12 13-11 36-10 55 0 4 1 7 1 10l0 3c0 10-1 14-5 19-5 5-13 10-21 12-2 0-4-1-7-2-4-1-8-3-14-2-6 0-10 5-10 11 1 6 5 10 11 10 2 0 4 1 6 1 4 2 10 4 18 3 12-3 25-10 33-19 10-12 10-22 10-33l0-3c0-3 0-7 0-11-1-13-2-33 4-40 4-4 4-11-1-15-2-2-4-3-7-3z"/>
<glyph unicode="&#65;" d="M401 0l-290 0c-4 0-7 2-9 4-2 3-2 7-1 10 47 135-37 286-38 287-2 5-1 11 3 14 77 59 37 162 37 163-2 5 0 11 4 13l33 20c3 1 7 1 10 0 3-2 6-5 6-9 8-87 81-131 100-141 19 10 92 54 100 141 0 4 3 7 6 9 3 1 7 1 10 0l33-20c4-2 6-8 4-13-2-4-40-104 37-163 4-3 5-9 3-14-1-1-85-152-38-287 1-3 1-7-1-9-2-3-5-5-9-5z m-275 21l260 0c-35 124 23 250 40 283-67 58-48 146-40 173l-11 7c-18-100-110-143-115-145-2-1-6-1-8 0-5 2-97 45-115 145l-11-7c8-27 27-115-40-173 17-33 75-159 40-283z"/>
<glyph unicode="&#66;" d="M206 381c-1 0-2 1-3 1-4 1-6 4-7 7l-25 81c-2 5 1 11 7 13 4 1 8 0 11-3 1 1 1 2 2 3 4 4 11 4 15 0l51-47c2-2 3-5 3-8 0-3-1-6-4-8l-43-36c-2-2-5-3-7-3z m-12 84l17-54 22 18z m185-465l-246 0c-6 0-11 5-11 11l0 240-33-25c-3-2-7-2-10-1l-72 26c-3 1-5 3-6 6-1 3-1 6 0 9l94 187c1 3 3 4 6 5l86 30c7 16 26 24 56 24 6 0 11 0 13-1 2 1 7 1 13 1 30 0 49-8 56-24l86-30c3-1 5-2 6-5l94-187c1-3 1-6 0-9-1-3-3-5-6-6l-72-26c-3-1-7-1-10 1l-33 25 0-240c0-6-5-11-11-11z m-235 21l225 0 0 252c0 4 2 8 5 9 4 2 8 2 12-1l45-34 55 20-86 173-87 30c-3 1-6 4-7 8-3 12-29 13-37 13-7 0-12-1-12-1-1 0-1 0-2 0 0 0-5 1-12 1-8 0-34-1-37-13-1-4-4-7-7-8l-87-30-86-173 55-20 45 34c4 3 8 3 12 1 3-1 6-5 6-9z m162 360c-2 0-5 1-7 3l-43 36c-3 2-4 5-4 8 0 3 1 6 3 8l51 47c4 4 11 4 15 0 1-1 1-2 2-3 3 3 7 4 11 3 6-2 9-8 7-13l-25-81c-1-3-3-6-7-7-1 0-2-1-3-1z m-27 48l22-18 17 54z m-23-429c-6 0-11 5-11 11l0 412c0 6 5 10 11 10 6 0 11-4 11-10l0-412c0-6-5-11-11-11z m99 320l-63 0c-6 0-11 5-11 11 0 6 5 11 11 11l63 0c6 0 11-5 11-11 0-6-5-11-11-11z"/>
<glyph unicode="&#67;" d="M256 120c-144 0-256 48-256 108 0 45 59 83 155 100 6 1 12-3 13-8 1-6-3-12-9-13-82-14-138-46-138-79 0-42 95-87 235-87 140 0 235 45 235 87 0 33-55 65-137 79-6 1-9 7-8 12 1 6 6 10 12 9 95-17 154-55 154-100 0-60-112-108-256-108z m-11 83c0 0 0 0 0 0-50 0-87 13-109 24-4 2-6 5-6 9l0 5c0 83 56 151 126 151 70 0 126-68 126-151 0-4-2-8-6-10-45-18-89-28-131-28z m-94 40c21-9 53-18 94-18l0 0c37 0 76 7 116 23-3 68-49 123-105 123-57 0-104-57-105-128z"/>
<glyph unicode="&#68;" d="M386 0l-260 0c-5 0-9 3-10 7-2 5-37 114 31 215 59 88-10 142-13 145-3 2-5 7-4 11 2 4 6 8 10 8 15 1 24 5 28 13 10 20-14 62-23 75-1 2-2 5-1 8 0 3 2 5 4 7l32 21c3 2 7 2 10 1 3-1 6-4 6-7 12-44 46-76 60-87 14 11 48 43 60 87 0 3 3 6 6 7 3 1 7 1 10-1l32-21c2-2 4-4 4-7 1-3 0-6-1-8-9-13-33-55-23-75 4-8 13-12 28-13 4-1 8-4 10-8 1-4-1-9-4-11-3-3-72-57-13-145 67-100 33-210 31-215-1-4-5-7-10-7z m-252 21l244 0c6 26 22 111-30 189-51 76-20 133 2 158-12 4-20 11-25 21-14 28 7 69 18 88l-11 7c-20-53-64-85-70-89-4-3-8-3-12 0-6 4-50 36-70 89l-11-7c11-19 32-60 18-88-5-10-13-17-25-21 22-25 53-82 2-158-52-78-36-164-30-189z m122 436c-33 0-64 15-79 39-3 5-1 11 4 14 5 4 12 2 15-3 10-18 34-29 60-29 26 0 50 11 61 29 3 5 9 6 14 3 5-3 7-9 4-14-14-24-45-39-79-39z"/>
<glyph unicode="&#69;" d="M181 295c0 0-1 0-2 0-3 1-6 3-7 6l-55 143c-2 5 0 10 3 12 4 3 9 4 13 1l124-81c2-2 4-5 4-8 1-4-1-7-3-9l-69-62c-2-2-5-2-8-2z m-32 126l37-98 47 43z m102-421c-3 0-5 1-7 3l-62 52c-3 2-4 6-4 10l49 228 0 4-23 29c-4 4-3 11 1 15 5 3 11 3 15-2l26-31c2-2 3-4 3-7l0-9c0-1 0-1 0-2l-48-223 57-48c4-4 5-11 1-15-2-3-5-4-8-4z m80 295c-3 0-6 0-8 2l-69 62c-2 2-4 5-4 9 1 3 3 6 5 8l124 81c4 3 9 2 13-1 3-2 5-7 3-12l-55-143c-1-3-4-5-7-6-1 0-2 0-2 0z m-52 71l47-43 37 98z m-18-366c-3 0-6 1-8 4-4 4-3 11 1 15l57 48-48 223c0 1 0 1 0 2l0 9c0 3 1 5 3 7l26 31c4 5 10 5 15 2 4-4 5-11 1-15l-23-29 0-4 49-228c0-4-1-8-4-10l-62-53c-2-1-4-2-7-2z m124 444c-2 0-5 1-7 2-125 99-243 2-244 1-5-4-11-4-15 1-4 4-3 11 1 15 1 1 133 109 272 0 4-3 5-10 1-15-2-2-5-4-8-4z"/>
<glyph unicode="&#70;" d="M268 0c-6 0-11 0-12 0-1 0-6 0-12 0-34 0-120 5-177 53-3 3-4 7-3 10 0 4 3 7 7 9 0 0 29 15 33 124 1 20 2 42 2 64 3 114 5 232 63 251 1 1 2 1 3 1l168 0c1 0 2 0 3-1 58-19 60-137 63-251 0-22 1-44 2-64 4-109 34-125 34-125 3-1 6-4 7-8 0-3-1-7-4-10-57-48-143-53-177-53z m-12 22c0 0 0 0 1 0 0 0 4-1 11-1 29 0 101 4 153 41-14 15-31 50-35 133-1 21-1 42-2 65-2 95-4 214-46 231l-164 0c-42-17-44-136-46-231-1-22-1-44-2-65-4-83-21-118-35-133 52-37 124-41 153-41 7 0 11 1 11 1 1 0 1 0 1 0z m-78 416l-8 0c-6 0-11 4-11 10 0 6 5 11 11 11l8 0c6 0 11-5 11-11 0-6-5-10-11-10z m41 0l-8 0c-6 0-11 4-11 10 0 6 5 11 11 11l8 0c6 0 11-5 11-11 0-6-5-10-11-10z m41 0l-8 0c-6 0-11 4-11 10 0 6 5 11 11 11l8 0c6 0 11-5 11-11 0-6-5-10-11-10z m41 0l-8 0c-6 0-11 4-11 10 0 6 5 11 11 11l8 0c6 0 11-5 11-11 0-6-5-10-11-10z m41 0l-8 0c-6 0-11 4-11 10 0 6 5 11 11 11l8 0c6 0 11-5 11-11 0-6-5-10-11-10z m-192-422c-4 0-8 2-10 6-2 5 0 12 5 15 30 15 32 87 30 114l5 253c0 6 4 11 10 11 0 0 0 0 0 0 6-1 11-5 11-11l-4-253c0-10 5-109-42-133-2-1-4-2-5-2z m212 0c-1 0-3 1-5 2-47 24-42 123-42 134l-4 252c0 6 5 10 11 11 0 0 0 0 0 0 6 0 10-5 10-11l5-252c-2-28 0-100 30-115 5-3 7-10 5-15-2-4-6-6-10-6z m-106-16c-6 0-11 5-11 11l0 385c0 6 5 11 11 11 6 0 11-5 11-11l0-385c0-6-5-11-11-11z"/>
<glyph unicode="&#71;" d="M449 0c0 0 0 0 0 0-21 0-41 10-59 29-1 0-1 0-1 1-2 2-8 8-12 8-4 0-8-5-11-8-11-16-33-26-56-26-24 0-43 11-50 27l-4 3-4-3c-7-16-26-27-50-27-23 0-45 10-56 26-3 3-7 8-11 8-4 0-10-6-12-8 0-1 0-1-1-1-18-19-38-29-59-29-35 0-59 28-60 29-3 3-3 6-3 9l72 309 2 154c0 6 5 11 11 11l342 0c6 0 11-5 11-11l2-155 72-308c1-3 0-6-3-9-1-1-25-29-60-29z m-43 43c13-14 28-22 43-22 19 0 34 12 41 18l-71 304c-1 1-1 1-1 2l-2 146-320 0-2-146c0-1 0-1-1-2l-71-304c7-6 22-18 41-18 15 0 30 8 44 22 2 3 13 16 28 16 7 0 18-3 28-17 7-10 23-16 39-16 13 0 27 4 31 16 1 2 3 5 5 6l13 7c3 2 7 2 10 0l13-7c2-1 4-4 5-6 4-12 18-16 31-16 16 0 32 6 39 16 10 14 21 17 28 17 15 0 26-13 29-16z m-270 1c-1 0-1 0-1 0-6 1-10 6-10 12l25 291c1 5 6 10 12 9 6 0 10-5 9-11l-25-291c0-5-5-10-10-10z m240 0c-5 0-10 5-10 10l-25 291c-1 6 3 11 9 11 6 1 11-4 12-9l25-291c0-6-4-11-10-12 0 0 0 0-1 0z m-120-5c-6 0-11 5-11 11l0 296c0 6 5 10 11 10 6 0 11-4 11-10l0-296c0-6-5-11-11-11z m170 296l-340 0c-5 0-10 5-10 11 0 6 5 10 10 10l340 0c5 0 10-4 10-10 0-6-5-11-10-11z"/>
<glyph unicode="&#72;" d="M305 73c-55 0-111 18-138 28l0-18c0-5-4-10-10-10l-131 0c-4 0-8 2-10 6-21 52-21 123 0 190 21 69 0 144 0 145-2 4 0 9 4 12 3 2 8 2 12 0l100-71 94 82c3 2 7 3 11 1 4-1 6-5 7-9 6-202 143-228 208-240l7-2c21-4 36-13 44-28 15-24 7-53 6-54-1-3-3-6-6-7-21-8-124-25-198-25z m-148 54c1 0 3 0 4-1 1 0 75-32 144-32 65 0 156 15 185 22 1 8 2 21-5 32-5 10-15 16-30 18l-7 2c-63 12-208 39-224 238l-85-73c-3-3-9-3-13 0l-84 59c5-30 9-80-6-129-22-70-16-132-3-169l113 0 0 22c0 4 2 7 5 9 2 2 4 2 6 2z"/>
<glyph unicode="&#73;" d="M101 0c-2 0-4 1-6 2-2 1-4 4-4 7l-19 94c-15 12-66 52-72 88-1 11 1 20 7 28 8 9 18 14 29 14 7 0 14-2 20-4-4 22-5 55 10 78 10 15 24 24 43 26 2 1 8 2 17 2 22 0 77-10 97-106l37-186c1-5-2-11-8-12l-149-31c0 0-1 0-2 0z m-65 212c-5 0-9-2-12-6-2-3-3-7-2-12 3-26 48-63 66-76 2-1 3-4 4-6l18-89 127 27-35 175c-16 77-55 89-76 89-7 0-12-2-12-2-1 0-1 0-2 0-12-2-22-7-28-16-19-29-3-84-3-85 1-4-1-9-5-12-4-2-9-2-12 1-5 4-17 12-28 12z m375-35c-1 0-2 0-2 0l-149 31c-6 1-9 6-8 12l37 186c20 96 75 106 97 106 9 0 15-1 17-2 19-3 33-11 43-26 15-23 14-56 10-78 6 2 13 4 20 4 12 0 21-5 29-14 6-8 8-18 7-28-6-36-57-77-72-88l-19-95c0-2-2-5-4-6-2-2-4-2-6-2z m-136 49l127-26 18 89c1 2 2 5 4 6 18 12 63 50 66 76 1 5 0 9-2 12-3 4-7 6-12 6-11 0-23-8-28-12-3-3-8-3-12-1-4 3-6 8-5 12 0 1 16 56-3 85-6 9-15 14-28 16-1 0-1 0-2 0 0 0-5 2-12 2-21 0-60-12-76-89z"/>
<glyph unicode="&#74;" d="M87 123c-3 0-79 1-86 30-5 18 18 33 38 43 42 21 70 29 82 31l33 138c1 4 4 7 8 8 3 1 63 16 127 16 47 0 84-9 108-25 3-2 4-4 5-6l30-115c20 0 57-3 73-18 4-4 10-13 6-24-6-16-30-36-171-40-80-3-106-9-135-17-25-7-53-14-116-21-1 0-1 0-2 0z m-65 35c6-8 47-13 65-13l0-11 0 11c61 6 88 13 112 19 31 9 58 16 140 18 145 4 152 26 152 26 0 0-1 1-1 2-9 8-40 12-65 12l-2 0c-5 0-9 3-10 8l-31 118c-21 13-52 19-93 19-50 0-98-9-115-13l-34-139c-1-5-5-8-10-8 0 0-27-2-81-30-22-11-26-17-27-19z m176 35c-32 0-54 5-64 14-7 7-6 14-6 16 1 6 7 10 12 9 5-1 9-5 9-9 4-4 36-26 262 23 6 1 12-3 13-9 1-5-2-11-8-12-97-21-170-32-218-32z"/>
<glyph unicode="&#75;" d="M388 0c0 0 0 0 0 0l-264 0c-4 0-7 2-9 5-2 2-2 6-1 9 1 2 63 175 13 274l-24-73c-2-5-8-8-13-7l-82 20c-5 2-9 7-8 13 7 36 44 220 83 247 30 21 80 24 107 24 7 0 12 0 12 0 3 0 5-2 7-4 2-2 3-5 3-8 0 0-3-47 17-69 7-7 16-11 27-11 11 0 20 4 27 11 17 19 18 56 17 69 0 3 1 6 3 8 2 2 4 4 7 4 0 0 5 0 12 0 27 0 77-3 107-24 39-27 76-211 83-247 1-6-3-11-8-13l-82-20c-5-1-11 2-13 7l-24 73c-48-94 6-253 12-272 1-1 2-3 2-5 0-6-5-11-11-11z m-249 21l234 0c-16 49-60 209 6 298 3 3 7 5 11 4 4-1 7-3 8-7l29-85 62 16c-16 82-48 207-72 223-26 19-75 21-95 21 0 0 0 0 0 0 0-18-4-53-23-74-11-12-26-18-43-18-17 0-32 6-43 18-19 21-23 56-23 74-20 0-69-2-95-21-24-16-56-141-72-223l62-16 29 85c1 4 4 6 8 7 4 1 8-1 11-4 66-89 22-249 6-298z m117-21c-6 0-11 5-11 11l0 399c0 6 5 11 11 11 6 0 11-5 11-11l0-399c0-6-5-11-11-11z"/>
<glyph unicode="&#76;" d="M162 410c-4 0-8 3-10 7-2 5 0 11 6 14 30 14 28 38 28 38-1 6 3 11 9 12 6 1 11-3 12-9 0-2 4-40-41-61-1 0-3-1-4-1z m185-410l-68 0c-3 0-6 1-8 3-2 2-3 5-3 8 1 105-2 259-12 335-10-76-13-230-12-335 0-3-1-6-3-8-2-2-5-3-8-3l-68 0c-5 0-10 4-10 9-8 56 1 128 2 131 0 0 0 1 0 2 0 1 33 106 0 184-35 86-13 174-12 178 1 5 5 8 10 8l202 0c5 0 9-3 10-8 1-4 24-92-12-178-33-78 0-183 0-184 0-1 0-2 0-2 1-3 10-75 2-131 0-5-5-9-10-9z m-57 21l47 0c5 49-2 107-3 115-3 12-34 116 1 199 27 64 18 133 13 156l-184 0c-5-23-14-92 13-156 35-83 4-187 1-199-1-8-8-66-3-115l47 0c0 65 0 330 25 375 3 7 15 7 18 0 25-45 25-310 25-375z m60 389c-1 0-3 1-4 1-45 21-41 59-41 61 1 6 6 10 12 9 6-1 10-6 9-12 0-1-2-25 28-38 6-3 8-9 6-14-2-4-6-7-10-7z m-94 2c-6 0-11 5-11 11l0 76c0 6 5 11 11 11 6 0 11-5 11-11l0-76c0-6-5-11-11-11z"/>
<glyph unicode="&#77;" d="M256 0c-39 0-73 6-160 38-4 2-7 6-7 11l13 302c0 2 0 4 2 6l2 4-48-17c-5-1-10 1-12 4l-44 64c-3 4-3 9 0 12 3 4 66 84 178 88 3 0 6-1 8-3 2-2 3-5 3-8 0-3 1-72 65-72 64 0 65 69 65 72 0 3 1 6 3 8 2 2 5 3 8 3 112-4 175-84 178-88 3-3 3-8 0-12l-44-64c-2-3-7-5-12-4l-48 17 2-4c2-2 2-4 2-6l13-302c0-5-3-9-7-11-87-32-121-38-160-38z m-145 55c78-28 110-34 145-34 35 0 67 6 145 34l-12 292-21 28c-2 4-2 9 0 13 3 4 8 5 12 4l73-25 35 50c-16 17-67 67-147 73-3-34-24-83-85-83-61 0-82 49-85 83-80-6-131-56-147-73l35-50 73 25c4 1 9 0 12-4 2-4 2-9 0-13l-21-28z"/>
<glyph unicode="&#78;" d="M59 132c-1 0-1 0-1 0-3 0-5 1-7 3l-48 51c-4 4-4 10-1 14l126 168c1 2 3 3 6 4l33 8c6 1 12-3 13-8 1-6-2-12-8-13l-30-7-117-158 34-36 96 90c4 4 11 4 15-1 4-4 4-11 0-15l-104-97c-2-2-5-3-7-3z m394 0c-2 0-5 1-7 3l-104 97c-4 4-4 11 0 15 4 5 11 5 15 1l96-90 34 36-118 158-31 9c-5 2-9 8-7 14 2 5 8 8 13 7l35-11c2 0 4-2 5-3l126-168c3-4 3-10-1-14l-48-51c-2-2-4-3-7-3 0 0 0 0-1 0z m-90-135l-214 0c-5 0-10 5-10 11l0 217c0 6 5 10 10 10 6 0 11-4 11-10l0-206 192 0 0 205c0 6 5 10 11 10 5 0 10-4 10-10l0-216c0-6-5-11-10-11z m-109 325c-61 0-110 43-110 96 0 53 49 97 110 97 60 0 109-44 109-97 0-53-49-96-109-96z m0 171c-49 0-88-33-88-75 0-41 39-75 88-75 48 0 88 34 88 75 0 42-40 75-88 75z m0-171c-45 0-81 31-81 71 0 39 36 71 81 71 44 0 80-32 80-71 0-40-36-71-80-71z m0 121c-33 0-59-23-59-50 0-28 26-50 59-50 32 0 59 22 59 50 0 27-27 50-59 50z m0-442c-6 0-11 5-11 11l0 313c0 6 5 11 11 11 6 0 10-5 10-11l0-313c0-6-4-11-10-11z"/>
<glyph unicode="&#79;" d="M74 0l-63 0c-3 0-6 1-8 3-2 2-3 5-3 8 1 16 18 379 91 444 5 4 11 4 15-1 4-4 4-11 0-15-54-47-78-308-84-418l42 0c6 48 34 251 92 295 5 4 12 3 15-2 4-5 3-11-2-15-47-36-77-221-85-289 0-6-5-10-10-10z m304 67l-244 0c-3 0-6 2-8 4-2 2-3 5-2 8 0 2 19 153 28 212 8 54-55 157-56 158-3 5-2 11 3 15l69 46c3 2 6 3 10 1 3-1 5-4 6-7 12-51 65-52 71-52 0 0 1 0 1 0 0 0 0 0 0 0 7 0 60 1 72 52 1 3 3 6 6 7 4 2 7 1 10-1l69-46c5-4 6-10 3-15-1-1-64-104-56-158 9-59 28-210 28-212 1-3 0-6-2-8-2-2-5-4-8-4z m-232 22l220 0c-5 37-20 150-27 199-8 52 38 136 53 164l-48 32c-21-52-80-53-87-53 0 0-1 0-1 0l-1 0c-7 0-66 1-87 54l-48-33c15-28 61-112 53-164-7-49-22-162-27-199z m355-89l-63 0c-5 0-10 4-10 10-8 68-38 253-85 289-5 4-6 10-2 15 3 5 10 6 15 2 58-44 86-247 92-295l42 0c-6 111-30 371-84 418-4 4-4 11 0 15 4 5 10 5 15 1 73-65 90-428 91-444 0-3-1-6-3-8-2-2-5-3-8-3z m-169 491l-152 0c-6 0-11 4-11 10 0 6 5 11 11 11l152 0c6 0 11-5 11-11 0-6-5-10-11-10z"/>
<glyph unicode="&#80;" d="M237 58c-1 0-1 0-2 0l-227 61c-6 1-9 7-8 13l78 314c1 5 5 8 10 8l336 0c5 0 9-3 10-8l78-304c1-5-2-11-7-13l-207-71c-5-1-10 1-13 5l-25 45-12-43c-2-4-6-7-11-7z m20 88c4 0 8-2 10-6l33-58 189 64-73 287-320 0-72-296 206-55 17 56c1 4 5 7 9 8 1 0 1 0 1 0z m180 235l-362 0c-6 0-11 5-11 11 0 6 5 10 11 10l362 0c6 0 11-4 11-10 0-6-5-11-11-11z m-233-223c-1 0-1 0-2 0l-126 21c-6 1-10 6-9 12l27 162c0 2 2 5 4 6 2 2 5 3 8 2l126-20c6-1 10-7 9-13l-27-161c0-3-2-5-4-7-2-1-4-2-6-2z m-114 40l105-17 23 140-105 18z m132 72c0 0-1 0-2 0l-126 22c-5 1-9 7-8 12 1 6 6 10 12 9l126-22c6-1 10-7 9-12-1-6-6-9-11-9z m86-112c-2 0-4 1-6 2-2 2-4 4-4 7l-27 161c-1 6 3 12 9 13l126 20c3 1 6 0 8-2 2-1 4-4 4-7l27-161c1-6-3-11-9-12l-126-21c-1 0-1 0-2 0z m-14 163l23-140 105 17-23 141z m-4-51c-5 0-10 3-11 9-1 5 3 11 9 12l126 22c6 1 11-3 12-9 1-5-3-11-8-12l-126-22c-1 0-2 0-2 0z"/>
<glyph unicode="&#81;" d="M262 0c-3 0-5 0-6 0-1 0-3 0-6 0-29 0-106 6-176 60-2 2-4 5-4 9 0 14-9 352 93 440 4 4 10 4 14 1 0 0 38-29 79-30 41 1 79 30 79 30 4 3 10 3 14-1 102-88 93-426 93-440 0-4-2-7-4-9-70-54-147-60-176-60z m-6 21c2 0 3 0 6 0 27 0 95 6 159 53 0 42 2 329-80 414-15-10-48-29-85-30-37 1-70 20-85 30-82-85-80-372-80-414 64-47 132-53 159-53 3 0 4 0 6 0z"/>
<glyph unicode="&#82;" d="M382 32l-252 0c-6 0-11 4-11 10l0 253-13-16c-3-4-9-5-14-2l-87 56c-5 3-6 9-4 14 3 6 77 133 195 133 5 0 10-4 10-10 1-4 5-38 50-38 45 0 49 34 50 38 0 6 5 10 10 10 118 0 192-127 195-133 2-5 1-11-4-14l-87-56c-5-3-11-2-14 2l-13 16 0-253c0-6-5-10-11-10z m-242 21l232 0 0 272c0 4 2 8 7 10 4 1 9 0 12-3l25-32 71 45c-18 27-77 108-162 114-5-21-24-49-69-49-45 0-64 28-69 49-85-6-144-87-162-114l71-45 25 32c3 3 8 4 12 3 5-2 7-6 7-10z"/>
<glyph unicode="&#83;" d="M255 347c-4 0-8 2-10 6-25 52-37 133-37 136-1 6 3 11 9 12 6 1 11-3 12-9 0-1 12-81 35-130 3-5 1-12-5-14-1-1-3-1-4-1z m2 0c-1 0-3 0-4 1-6 2-8 9-5 14 23 49 35 129 35 130 1 6 6 10 12 9 6-1 10-6 9-12 0-3-12-84-37-136-2-4-6-6-10-6z m-3-74c-4 0-7 2-9 5l-64 100c-1 2-2 6-1 9l10 27-13 7c-5 2-7 8-5 13l15 38c2 6 8 8 14 6 5-2 8-8 6-14l-12-29 13-7c5-3 7-8 5-13l-11-30 61-96c3-5 1-11-4-14-1-1-3-2-5-2z m12-153c-6 0-10 1-10 1 0 0-4-1-10-1-25 0-70 2-96 14-5 3-7 8-5 14 0 1 25 70 21 138l-31-119c-2-6-7-9-13-8l-52 11c-2 1-5 3-6 5-2 3-2 6-2 8l67 266c1 3 3 5 6 7l57 25 15 20c2 2 4 3 7 4l40 7c1 0 3 0 4 0l40-7c3-1 5-2 7-4l15-20 57-25c3-2 5-4 6-7l67-266c0-2 0-5-2-8-1-2-4-4-6-5l-52-11c-6-1-11 2-13 8l-31 119c-4-68 21-137 21-138 2-6 0-11-5-14-26-12-71-14-96-14z m-10 22c0 0 4 0 10 0 16 0 54 1 78 8-9 30-33 117-9 189 1 4 5 7 10 7 5 0 9-3 10-8l40-156 31 7-63 249-54 25c-1 0-3 2-4 3l-15 19-34 6-35-6-14-19c-1-1-3-3-4-3l-54-25-63-249 31-7 40 156c1 5 5 8 10 8 4 0 9-3 10-7 24-72 0-159-9-189 24-7 62-8 78-8 6 0 10 0 10 0z m2 131c-2 0-4 1-5 2-5 3-7 10-4 14l61 96-11 30c-2 5 0 10 5 13l13 7-12 29c-2 6 1 12 6 14 6 2 12 0 14-6l15-38c2-5 0-11-5-13l-13-7 10-27c1-3 0-7-1-9l-64-100c-2-3-5-5-9-5z m-2-152c-6 0-11 4-11 10l0 148c0 6 5 11 11 11 6 0 11-5 11-11l0-148c0-6-5-10-11-10z m-11-121c-55 0-82 18-84 20-3 2-5 5-5 8l0 107c0 6 5 11 11 11 6 0 11-5 11-11l0-100c15-8 66-27 156 1l0 99c0 6 5 11 11 11 6 0 11-5 11-11l0-107c0-4-3-8-8-10-41-13-75-18-103-18z"/>
<glyph unicode="&#84;" d="M221 243c-1 0-3 0-4 0-42 15-41 48-41 50 0 6 5 10 11 10 6 0 10-5 10-11 0-2 1-17 22-26l31 21c5 3 11 2 15-3 3-4 2-11-3-15l-35-24c-2-1-4-2-6-2z m-98-227c-6 0-10 5-11 10 0 4-7 99 54 193 4 5 10 7 15 3 5-3 7-9 3-14-57-88-51-179-50-180 0-6-4-11-10-12-1 0-1 0-1 0z m64-8c-6 0-11 5-11 10 0 3-2 63 18 107 3 5 9 7 14 5 6-2 8-9 6-14-18-40-17-96-17-97 0-6-4-11-10-11 0 0 0 0 0 0z m69-8c-153 0-193 46-195 48-1 2-2 4-2 7 0 158 117 247 122 250 13 12 19 24 18 37-3 26-35 52-48 59-2 2-4 4-5 7 0 3 0 6 2 9l14 19-6 58c-1 5 3 10 8 12l25 6c3 0 6 0 8-2 2-1 4-3 5-6l11-49c19-1 35-9 43-14 8 5 24 13 43 14l11 49c1 3 3 5 5 6 2 2 5 2 8 2l25-6c5-2 9-7 8-12l-6-58 14-19c2-3 2-6 2-9-1-3-3-5-5-7-1 0-45-28-48-60-1-12 5-24 18-36 5-3 122-92 122-250 0-3-1-5-2-7-2-2-42-48-195-48z m-176 59c10-8 55-38 176-38 121 0 166 30 176 38-2 145-113 228-114 229-19 17-28 36-26 55 3 32 32 58 48 70l-10 14c-2 2-2 5-2 7l6 53-5 1-11-45c-1-5-6-9-11-9-26 0-44-14-44-14-4-3-10-3-14 0 0 0-19 14-44 14-5 0-10 4-11 9l-11 45-5-1 6-53c0-2 0-5-2-7l-10-14c16-12 45-38 48-70 2-19-7-38-25-54-2-2-113-85-115-230z m211 184c-2 0-4 1-6 2l-35 25c-5 3-6 10-3 14 4 5 10 6 15 3l31-21c21 9 22 24 22 26 0 6 4 11 10 11 6 0 11-5 11-10 0-2 1-35-41-50-1 0-3 0-4 0z m98-227c0 0 0 0-1 0-6 1-10 6-10 12 1 1 7 92-50 180-4 5-2 11 3 14 5 4 11 2 15-3 61-94 54-189 54-193-1-5-5-10-11-10z m-64-8c0 0 0 0 0 0-6 0-10 5-10 11 0 1 1 57-17 97-2 5 0 12 6 14 5 2 11 0 14-5 20-44 18-104 18-107 0-5-5-10-11-10z"/>
<glyph unicode="&#85;" d="M256 385c-3 0-6 1-8 4-7 9-42 53-42 76 0 26 22 47 50 47 28 0 50-21 50-47 0-23-35-67-42-76-2-3-5-4-8-4z m0 106c-16 0-29-12-29-26 0-9 14-32 29-52 15 20 29 43 29 52 0 14-13 26-29 26z m0-491c-114 0-137 25-140 30-1 2-2 4-2 6-3 72 24 211 63 246 29 26 20 67 19 71l-21 54c-2 5 0 11 4 13l43 25c5 3 12 2 15-3 3-6 1-12-4-15l-35-20 18-46c0-1 0-1 0-1 1-3 16-57-24-93-32-29-59-154-56-226 6-5 33-20 120-20 6 0 11-4 11-10 0-6-5-11-11-11z m0 0c-6 0-11 5-11 11 0 6 5 10 11 10 86 0 113 15 121 20 2 73-25 197-57 226-40 36-25 90-24 93 0 0 0 0 0 1l18 46-35 20c-5 3-7 9-4 15 3 5 10 6 15 3l43-25c4-2 6-8 4-13l-21-54c-1-5-10-45 19-71 39-35 66-174 63-246 0-2-1-4-2-6-3-5-26-30-140-30z"/>
<glyph unicode="&#86;" d="M176 406c-5 0-9 4-10 9l-14 85c-1 5 3 11 9 12 5 1 11-3 12-9l14-85c1-5-3-11-9-12-1 0-1 0-2 0z m80-406c0 0 0 0 0 0-3 0-7 2-9 4 0 1-33 43-127 62-4 1-8 5-8 10-1 2-6 68 31 103 30 28 13 73-2 95-10 16-25 53-16 91 6 26 21 47 46 61 3 2 8 2 11 0l74-49 74 49c3 2 8 2 11 0 25-14 40-35 46-61 9-38-6-75-16-91-15-22-32-67-2-95 37-35 32-101 31-103 0-5-4-9-8-10-94-19-127-61-127-62-2-2-6-4-9-4z m-123 85c70-16 108-44 123-59 15 15 53 43 123 59 1 17-1 57-25 79-35 33-26 85-1 122 9 14 20 45 14 74-4 18-15 33-31 44l-74-49c-4-2-8-2-12 0l-74 49c-16-11-26-26-31-44-6-29 5-60 14-74 25-37 34-89-1-122-24-22-26-62-25-79z m203 321c-1 0-1 0-2 0-6 1-10 7-9 12l14 85c1 6 7 10 12 9 6-1 10-7 9-12l-14-85c-1-5-5-9-10-9z m-80-281c-6 0-11 5-11 11l0 147c0 6 5 11 11 11 6 0 11-5 11-11l0-147c0-6-5-11-11-11z"/>
<glyph unicode="&#87;" d="M239 0c-11 0-25 3-36 13-23-12-63-21-90 7-26-8-69-11-87 30-1 2-1 5 0 8l94 255-1 2c-10-6-24-14-38-16-3-1-7 1-10 4l-69 84c-1 2-2 5-2 8 0 2 3 50 35 73 16 12 37 15 61 9l86 34c6 2 12 0 14-6 2-5 0-11-6-14l-89-35c-2-1-5-1-7 0-19 5-35 3-47-5-19-14-24-43-25-54l61-76c17 5 34 18 34 18 3 2 6 3 9 2 3-1 6-3 7-6l8-17c1-3 1-6 0-8l-93-255c17-32 62-14 63-13 5 2 10 1 13-3 27-34 73-5 75-3 5 3 11 2 14-3 14-18 39-10 40-10 5 2 11-1 13-7 2-5-1-11-7-13 0 0-9-3-20-3z m34 0c-11 0-20 3-20 3-6 2-9 8-7 13 2 6 8 9 13 7 1 0 26-8 40 10 3 5 9 6 14 3 2-2 48-31 75 3 3 4 8 5 13 3 1-1 46-19 63 13l-93 255c-1 2-1 5 0 8l8 17c1 3 4 5 7 6 3 1 6 0 9-2 0 0 17-13 34-18l61 76c-1 11-6 40-26 54-11 8-27 10-46 5-3-1-5-1-7 0l-89 35c-6 3-8 9-6 14 2 6 8 8 14 6l86-34c24 6 45 3 61-9 32-23 35-71 35-73 0-3-1-6-2-8l-69-84c-3-3-6-5-10-4-14 2-28 10-38 16l-1-2 94-255c1-3 1-6 0-8-18-41-61-38-87-30-27-28-67-19-90-7-11-10-25-13-36-13z m-17 386c-45 0-80 51-80 115 0 6 5 11 11 11l138 0c6 0 11-5 11-11 0-64-35-115-80-115z m-58 105c3-47 29-84 58-84 29 0 55 37 58 84z m58-246c-27 0-48 20-48 44 0 24 21 43 48 43 27 0 48-19 48-43 0-24-21-44-48-44z m0 66c-15 0-27-10-27-22 0-12 12-22 27-22 15 0 27 10 27 22 0 12-12 22-27 22z m-37-33l-97 0c-6 0-10 5-10 11 0 6 4 10 10 10l97 0c6 0 11-4 11-10 0-6-5-11-11-11z m172 0l-97 0c-6 0-11 5-11 11 0 6 5 10 11 10l97 0c6 0 10-4 10-10 0-6-4-11-10-11z"/>
<glyph unicode="&#88;" d="M302 71l-92 0c-4 0-9 3-10 7-1 4-29 92-191 114-3 1-5 2-7 4-2 3-2 6-2 8l33 228c0 6 5 9 10 9l426 0c5 0 10-3 10-9l33-228c0-2 0-5-2-8-2-2-4-3-7-4-163-22-191-113-191-114-1-4-6-7-10-7z m-84 21l76 0c11 24 54 97 195 120l-29 208-408 0-29-208c141-23 184-96 195-120z m255 271l-434 0c-6 0-11 5-11 11 0 6 5 11 11 11l434 0c6 0 11-5 11-11 0-6-5-11-11-11z m-338-208c-1 0-3 1-4 1-5 2-8 8-6 14l72 207c2 6 8 9 14 7 5-2 8-8 6-14l-72-207c-2-5-6-8-10-8z m242 0c-4 0-8 3-10 8l-72 207c-2 6 1 12 6 14 6 2 12-1 14-7l72-207c2-6-1-12-6-14-1 0-3-1-4-1z"/>
<glyph unicode="&#89;" d="M167 394c-5 0-10 4-10 10-1 3-7 71 57 107 5 2 12 1 14-4 3-6 2-12-4-15-52-29-46-85-46-86 0-6-4-11-10-12 0 0 0 0-1 0z m25-122c-17 0-34 5-49 15-17 12-29 28-34 46-6 19-3 37 7 52 11 16 30 25 52 25 16 0 34-5 48-15 17-11 29-28 35-46 5-18 3-37-7-51-11-17-30-26-52-26z m-24 117c-15 0-28-6-35-16-6-10-8-22-4-34 4-13 13-25 26-34 11-8 24-12 37-12 14 0 27 6 34 17 6 9 8 21 4 33-4 14-13 26-26 34-11 8-24 12-36 12z m152-117c-22 0-41 9-52 26-20 29-8 73 28 97 14 10 32 15 48 15 22 0 41-9 52-25 10-15 13-33 7-52-5-18-17-34-34-46-15-10-32-15-49-15z m24 117c-12 0-25-4-36-12-26-17-36-47-22-67 7-11 20-17 34-17 13 0 26 4 37 12 13 9 22 21 26 34 4 12 2 24-4 34-7 10-20 16-35 16z m-75-389l-26 0c-6 0-11 5-11 10 0 4-4 93-102 87-3 0-6 1-8 3-2 2-3 5-3 8l0 24c0 5 4 10 10 10 1 0 82 4 121 32 3 3 9 3 12 0 39-28 120-32 121-32 6 0 10-5 10-10l0-24c0-3-1-6-3-8-2-2-5-3-8-3-98 5-102-83-102-87 0-5-5-10-11-10z m-17 21l8 0c4 27 23 97 112 98l0 3c-23 2-80 9-116 31-36-22-93-29-116-31l0-3c89-1 108-71 112-98z m93 373c0 0-1 0-1 0-6 1-10 6-10 12 0 2 5 57-46 86-6 3-7 9-4 15 2 5 9 7 14 4 64-36 58-104 57-107 0-6-5-10-10-10z m-69-103l-40 0c-6 0-11 5-11 11 0 6 5 10 11 10l40 0c6 0 11-4 11-10 0-6-5-11-11-11z m-20-133c-6 0-11 4-11 10l0 131c0 6 5 10 11 10 6 0 11-4 11-10l0-131c0-6-5-10-11-10z"/>
<glyph unicode="&#90;" d="M180 297c-10 0-20 2-30 7-2 1-4 3-5 5-2 3-31 68 24 119 4 3 9 4 13 1 2-2 55-36 70-94 1-4 0-8-3-10-1-2-32-28-69-28z m-17 25c5-2 11-3 17-3 22 0 41 11 49 18-11 34-39 59-52 69-29-33-19-72-14-84z m107 1l-28 0c-6 0-11 5-11 10 0 6 5 11 11 11l28 0c6 0 11-5 11-11 0-5-5-10-11-10z m-94 90c-6 0-10 5-10 11l0 77c0 6 4 11 10 11 6 0 11-5 11-11l0-77c0-6-5-11-11-11z m80-413c-3 0-6 1-8 4l-115 132c-2 2-3 5-3 8 1 3 2 6 5 8 58 43 19 151 19 152-2 6 1 12 6 14 6 2 12-1 14-6 2-5 41-115-18-170l108-124c4-5 3-12-1-15-2-2-5-3-7-3z m0 134l-110 0c-5 0-10 5-10 11 0 6 5 10 10 10l110 0c6 0 11-4 11-10 0-6-5-11-11-11z m-143-81c-2 0-4 0-6 2-5 3-6 10-2 15 5 8 3 18 2 30-2 8-3 16-2 25 2 15 6 23 17 29 0 0-1 0-2 1l-2 1c-4 2-10 4-12 3-5-4-12-2-15 3-3 5-2 11 3 15 13 8 28 1 34-2l2-1c4-2 11-6 15-13 2-3 4-9 2-15-2-6-7-8-10-9l-2-1c-7-3-8-4-9-13 0-6 1-13 2-20 2-14 4-31-6-46-2-3-5-4-9-4z m219 244c-37 0-68 26-69 28-3 2-4 6-3 10 15 58 68 92 70 94 4 3 9 2 13-1 55-51 26-116 24-119-1-2-3-4-5-5-10-5-20-7-30-7z m-49 40c8-7 28-18 49-18 6 0 12 1 17 3 5 12 15 51-14 84-13-10-41-35-52-69z m53 76c-6 0-11 5-11 11l0 77c0 6 5 11 11 11 6 0 10-5 10-11l0-77c0-6-4-11-10-11z m-80-413c-2 0-5 1-7 3-4 3-5 10-1 15l108 124c-59 55-20 165-18 170 2 5 8 8 14 6 5-2 8-8 6-14 0-1-39-109 19-152 3-2 4-5 5-8 0-3-1-6-3-8l-115-132c-2-3-5-4-8-4z m110 134l-110 0c-6 0-11 5-11 11 0 6 5 10 11 10l110 0c5 0 10-4 10-10 0-6-5-11-10-11z m33-81c-4 0-7 1-9 4-10 15-8 32-6 46 1 7 2 14 2 20-1 9-2 10-9 13l-2 1c-3 1-8 3-10 9-2 6 0 12 2 15 4 7 11 11 15 13l2 1c6 3 21 10 34 2 5-4 6-10 3-15-3-5-10-7-15-3-2 1-8-1-12-3l-2-1c-1-1-2-1-2-1 11-6 15-14 17-29 1-9 0-17-2-25-1-12-3-22 2-30 4-5 3-12-2-15-2-2-4-2-6-2z"/>
<glyph unicode="&#48;" d="M195 398c-1 0-2 1-3 1-4 1-6 4-7 8l-13 54c-1 5 2 11 8 12 6 2 12-2 13-8l9-37 45 36c5 4 12 3 15-2 4-4 3-11-1-15l-59-46c-2-2-4-3-7-3z m194-398l-266 0c-6 0-10 5-10 11l0 303-42-25c-5-3-11-1-14 3l-55 81c-3 5-2 11 2 15l111 80c2 2 4 2 5 2l57 7 17 29c1 3 4 5 7 5 3 1 7 0 9-2l46-41 46 41c2 2 6 3 9 2 3 0 6-2 7-5l17-29 57-7c1 0 3 0 5-2l111-80c4-4 5-10 2-15l-55-81c-3-4-9-6-14-3l-42 25 0-303c0-6-4-11-10-11z m-255 21l244 0 0 311c0 4 2 7 6 9 3 2 7 2 10 0l49-28 44 64-101 73-59 7c-4 0-7 2-8 5l-13 22-43-38c-4-4-10-4-14 0l-43 38-13-22c-1-3-4-5-8-5l-59-7-101-73 44-64 49 28c3 2 7 2 10 0 4-2 6-5 6-9l0-311z m183 377c-3 0-5 1-7 3l-59 46c-4 4-5 11-1 15 3 5 10 6 15 2l45-36 9 37c1 6 7 10 13 8 6-1 9-7 8-12l-13-54c-1-4-3-7-7-8-1 0-2-1-3-1z m-63-82c-6 0-11 4-11 10l0 120c0 6 5 11 11 11 6 0 11-5 11-11l0-120c0-6-5-10-11-10z m-46 174c-4 0-8 3-10 7-2 5 0 11 6 14 2 1 4 2 99 1 6 0 11-5 11-11 0-6-5-11-11-11 0 0 0 0 0 0-33 1-86 1-93 0-1 0-2 0-2 0z"/>
<glyph unicode="&#49;" d="M256 65c-177 0-249 59-252 62-4 3-5 8-3 13l99 201 0 95c0 6 5 11 11 11l145 0c6 0 11-5 11-11 0-6-5-11-11-11l-134 0 0-86c0-2-1-3-1-5l-97-196c21-13 93-51 232-51 6 0 11-5 11-11 0-6-5-11-11-11z m0 0c-6 0-11 5-11 11 0 6 5 11 11 11 140 0 211 38 232 51l-97 196c0 2-1 3-1 5l0 86-134 0c-6 0-11 5-11 11 0 6 5 11 11 11l145 0c6 0 11-5 11-11l0-95 99-201c2-5 1-10-3-13-3-3-75-62-252-62z m4 239c-85 0-149 23-153 25-5 2-8 8-6 14 2 5 8 8 14 6 1-1 141-52 282 0 6 2 12-1 14-6 2-6-1-12-6-14-51-19-101-25-145-25z m-4-232c-6 0-11 4-11 10l0 78c0 6 5 11 11 11 6 0 11-5 11-11l0-78c0-6-5-10-11-10z m-145 14c-1 0-2 0-3 0-6 2-9 8-8 13l23 87c2 6 8 9 13 8 6-2 10-7 8-13l-23-87c-1-5-6-8-10-8z m290 0c-4 0-9 3-10 8l-23 87c-2 6 2 11 8 13 5 1 11-2 13-8l23-87c1-5-2-11-8-13-1 0-2 0-3 0z"/>
<glyph unicode="&#50;" d="M271 0c-8 0-13 0-15 0-2 0-7 0-15 0-28 0-80 3-116 21-5 2-7 7-6 12l63 224-6 36-65-100c-3-5-10-6-15-3l-44 26c-4 3-6 8-4 13l89 247c2 3 5 6 9 7l45 6 2 14c1 5 6 9 11 9l104 0c5 0 10-4 11-9l2-14 45-6c4-1 7-4 9-7l89-247c2-5 0-10-4-13l-44-26c-5-3-12-2-15 3l-65 100-6-36 63-224c1-5-1-10-6-12-36-18-88-21-116-21z m-15 22c0 0 0 0 1 0 0 0 5-1 14-1 20 0 66 2 99 15l-61 217c-1 2-1 3 0 5l10 66c1 4 4 8 8 9 4 1 9-1 11-5l75-115 28 17-84 232-47 7c-4 0-8 4-9 9l-2 13-86 0-2-13c-1-5-5-9-9-9l-47-7-84-232 28-17 75 115c2 4 7 6 11 5 4-1 7-5 8-9l10-66c1-2 1-3 0-5l-61-217c33-13 79-15 99-15 9 0 14 1 14 1 1 0 1 0 1 0z m-25-22c-6 0-11 5-11 11l0 409c0 3 1 5 3 7l73 77c4 4 11 4 15 0 5-4 5-11 1-15l-71-73 0-405c0-6-4-11-10-11z m24 435c-3 0-5 1-7 3l-52 51c-4 4-4 11 0 15 4 4 11 4 15 0l52-51c4-4 4-11 0-15-2-2-5-3-8-3z m64-192l-127 0c-6 0-10 5-10 11 0 6 4 10 10 10l127 0c6 0 11-4 11-10 0-6-5-11-11-11z m-57 146c-6 0-10 5-10 11l0 8c0 6 4 11 10 11 6 0 11-5 11-11l0-8c0-6-5-11-11-11z m0-53c-6 0-10 5-10 11l0 9c0 6 4 10 10 10 6 0 11-4 11-10l0-9c0-6-5-11-11-11z m0-53c-6 0-10 5-10 11l0 9c0 6 4 11 10 11 6 0 11-5 11-11l0-9c0-6-5-11-11-11z m0-93c-6 0-10 5-10 10l0 9c0 6 4 11 10 11 6 0 11-5 11-11l0-9c0-5-5-10-11-10z m0-53c-6 0-10 5-10 11l0 9c0 5 4 10 10 10 6 0 11-5 11-10l0-9c0-6-5-11-11-11z m0-53c-6 0-10 5-10 11l0 9c0 6 4 10 10 10 6 0 11-4 11-10l0-9c0-6-5-11-11-11z"/>
<glyph unicode="&#51;" d="M349 491l-186 0c-6 0-11 4-11 10 0 6 5 11 11 11l186 0c6 0 11-5 11-11 0-6-5-10-11-10z m109-491l-404 0c-6 0-11 5-11 11l0 406c0 4 2 7 6 9l83 43c5 2 12 0 14-5 3-5 1-12-4-14l-77-40 0-389 382 0 0 389-76 41c-5 3-7 9-4 15 2 5 9 7 14 4l82-44c4-2 6-5 6-9l0-406c0-6-5-11-11-11z m-255 321c-1 0-1 0-1 0-4 1-7 3-9 6l-69 133c-2 4-1 8 1 11l26 36c2 3 5 5 8 5 3 0 7-1 9-4 3-4 59-60 96-96 3-4 4-10 1-14l-54-72c-2-3-5-5-8-5z m-57 143l58-112 38 51c-31 31-65 65-81 82z m163-143c-3 0-6 2-8 5l-54 72c-3 4-2 10 1 14 37 36 93 92 96 96 3 3 6 4 9 4 3 0 7-2 8-5l26-36c2-3 3-7 1-11l-69-133c-2-3-5-5-9-6 0 0 0 0-1 0z m-39 82l38-51 58 112-15 21c-16-17-50-51-81-82z m-69-403c-1 0-1 0-2 0-5 1-10 6-9 12l41 307-21 24c-4 4-4 11 0 15 5 4 12 3 15-1l26-28c2-2 3-5 2-8l-42-312c0-5-5-9-10-9z m110 0c-5 0-10 4-10 9l-42 312c-1 3 0 6 2 8l26 28c3 4 10 5 15 1 4-4 4-11 0-15l-21-24 41-307c1-6-4-11-9-12-1 0-1 0-2 0z"/>
<glyph unicode="&#52;" d="M56 103c-1 0-1 0-2 0-6 1-10 6-9 12 1 5 18 109 60 178 3 5 9 6 14 3 5-3 7-9 4-15-40-64-56-168-57-169 0-5-5-9-10-9z m63-57c0 0-1 1-1 1-6 0-10 6-9 11 0 4 10 86 27 137 2 5 8 9 13 7 6-2 9-8 7-14-16-49-26-131-26-132-1-6-5-10-11-10z m137 411l-93 0c-6 0-11 5-11 11 0 6 5 11 11 11l93 0c6 0 11-5 11-11 0-6-5-11-11-11z m53-457c0 0 0 0 0 0-15 0-33 0-53 1-20-1-38-1-53-1-80 0-99 7-105 20-5 10 2 20 7 26 0 1 0 1 1 1-60 14-74 24-78 35-3 12 6 19 11 25 1 0 2 1 3 2-1 1-2 1-3 1-20 10-32 22-37 35-4 11-1 20 0 24 45 179 136 288 154 308l0 24c0 6 5 11 11 11l178 0c6 0 11-5 11-11l0-24c17-20 109-129 154-308 1-4 4-13 0-24-5-13-17-25-37-35-1 0-2 0-3-1 1-1 2-2 3-2 5-6 14-13 11-25-4-11-18-21-78-35 1 0 1 0 1-1 5-6 12-16 7-26-6-13-25-20-105-20z m-53 22c20 0 38-1 53-1 61 0 79 5 85 8-1 1-3 3-4 4-4 6-10 14-7 23 4 9 15 11 19 12 43 10 56 17 60 19-1 2-3 3-4 4-5 5-12 12-11 22 2 9 10 14 17 17 18 8 24 17 26 22 1 5 0 8 0 8 0 1-1 2-1 3-47 190-151 301-152 303-2 2-3 4-3 7l0 18-156 0 0-18c0-3-1-5-3-7-1-2-106-113-152-303-1-1-1-2-1-3-3-5 0-18 26-30 7-3 15-8 17-17 1-10-6-17-11-22-1-1-3-2-4-4 4-2 17-9 60-19 4-1 15-3 19-12 3-9-3-17-7-23-1-1-3-3-4-4 6-3 24-8 85-8 15 0 33 1 53 1z m200 81c-5 0-10 4-10 9-1 1-17 105-57 169-3 6-1 12 4 15 5 3 11 2 15-3 41-69 58-173 59-178 1-6-3-11-9-12-1 0-1 0-2 0z m-63-57c-6 0-10 4-11 10 0 1-10 83-26 132-2 6 1 12 7 14 5 2 11-2 13-7 17-51 27-133 27-137 1-5-3-11-9-11 0 0-1-1-1-1z m-44 411l-93 0c-6 0-11 5-11 11 0 6 5 11 11 11l93 0c6 0 11-5 11-11 0-6-5-11-11-11z m-93-456c-6 0-11 5-11 11l0 280c0 6 5 11 11 11 6 0 11-5 11-11l0-280c0-6-5-11-11-11z"/>
<glyph unicode="&#53;" d="M376 21l-240 0c-6 0-11 5-11 11l0 274-47-44c-4-4-10-4-14 0l-61 57c-4 3-4 10-1 14l91 118c1 1 3 2 5 3l100 36c3 1 6 1 9-1 3-1 5-4 5-7 0-3 5-27 44-27 40 0 44 26 44 27 0 3 2 6 5 7 3 2 6 2 9 1l100-36c2-1 4-2 5-3l91-118c3-4 3-11-1-14l-61-57c-4-4-10-4-14 0l-47 44 0-274c0-6-5-11-11-11z m-230 21l220 0 0 289c0 4 2 8 6 10 4 1 9 0 12-2l57-54 46 43-83 107-87 31c-7-15-25-33-61-33-36 0-54 18-61 33l-87-31-83-107 46-43 57 54c3 2 8 3 12 2 4-2 6-6 6-10z m162 428l-104 0c-6 0-10 4-10 10 0 6 4 11 10 11l104 0c6 0 10-5 10-11 0-6-4-10-10-10z"/>
<glyph unicode="&#54;" d="M186 263c-44 0-81 29-81 64 0 35 37 64 81 64 45 0 81-29 81-64 0-35-36-64-81-64z m0 107c-33 0-59-19-59-43 0-23 26-42 59-42 33 0 59 19 59 42 0 24-26 43-59 43z m140-107c-45 0-81 29-81 64 0 35 36 64 81 64 44 0 81-29 81-64 0-35-37-64-81-64z m0 107c-33 0-59-19-59-43 0-23 26-42 59-42 33 0 59 19 59 42 0 24-26 43-59 43z m-62-370c-3 0-6 0-8 1-2-1-5-1-8-1-10 0-32 3-42 34-5 14-22 59-68 59-3 0-5 0-8-1-3 0-6 1-8 4-3 2-4 5-3 9l6 36c1 5 6 8 11 8l240 0c5 0 10-3 11-8l6-36c1-4 0-7-3-9-2-3-5-4-9-4-2 1-4 1-7 1-46 0-64-45-68-59-10-31-33-34-42-34z m-8 22c1 0 2 0 3 0 0 0 2-1 5-1 11 0 18 7 22 20 11 34 38 71 84 73l-3 14-222 0-3-14c46-2 73-39 84-73 4-13 11-20 22-20 3 0 5 1 5 1 1 0 2 0 3 0z m-85 350c-5 0-10 4-11 9l-23 118c-1 6 3 12 8 13 6 1 12-3 13-9l23-118c1-6-2-11-8-12-1-1-1-1-2-1z m170 0c-1 0-1 0-2 1-6 1-10 6-8 12l23 118c1 6 7 10 13 9 5-1 9-7 8-13l-23-118c-1-5-6-9-11-9z"/>
<glyph unicode="&#55;" d="M127 396c-6 0-11 4-11 10l0 95c0 6 5 11 11 11 6 0 10-5 10-11l0-95c0-6-4-10-10-10z m223-143c-37 0-79 20-94 28-15-8-57-28-94-28-24 0-42 8-54 23-19 25-21 66-5 126 1 4 4 7 8 8 1 0 6 1 15 1 24 0 81-7 130-61 49 54 106 61 130 61 9 0 14-1 15-1 4-1 7-4 8-8 16-60 14-101-5-126-12-15-30-23-54-23z m-94 50c2 0 4 0 5-1 1 0 49-27 89-27 17 0 29 4 37 15 14 17 15 51 3 99-1 0-3 0-4 0-22 0-77-6-122-62-4-5-12-5-16 0-45 56-100 62-122 62-1 0-3 0-4 0-12-48-11-82 3-99 8-11 20-15 37-15 40 0 88 27 89 27 1 1 3 1 5 1z m129 93c-6 0-10 4-10 10l0 95c0 6 4 11 10 11 6 0 11-5 11-11l0-95c0-6-5-10-11-10z m-103-396l-52 0c-5 0-9 3-10 8 0 0-11 42-34 70-27 35-59 58-59 58-3 2-4 6-4 9l0 35c0 5 4 10 10 10l246 0c6 0 10-5 10-10l0-35c0-3-1-7-4-9 0 0-32-23-59-58-23-29-34-70-34-70-1-5-5-8-10-8z m-44 21l36 0c4 15 16 46 35 70 23 30 49 51 59 59l0 19-224 0 0-19c10-8 36-29 59-59 19-24 31-55 35-70z"/>
<glyph unicode="&#56;" d="M381 0l-250 0c-5 0-9 3-10 6-2 5-48 114 34 209 3 6 22 41 1 83-19 39-26 70-21 95l-54 22c-3 1-5 3-6 6-1 3-1 6 0 9l19 41c1 3 3 5 6 5l100 35c3 2 7 1 10-1 3-2 4-5 4-9 0-2-1-53-20-93 18-2 42-7 62-24 20 17 44 22 62 24-19 40-20 91-20 93 0 4 1 7 4 9 3 2 7 3 10 1l100-35c3 0 5-3 6-5l19-41c1-3 1-6 0-9-1-3-3-5-6-6l-54-22c5-25-2-56-21-95-21-42-2-78 1-83 82-96 36-204 34-209-1-3-5-6-10-6z m-243 21l236 0c8 24 30 107-34 181 0 1-1 1-1 1-1 2-30 49-2 105 19 37 25 67 17 88-2 5 1 11 6 14l53 21-12 27-81 28c2-21 8-58 24-82 3-3 3-8 1-11-2-4-6-6-10-6 0 0-2 1-3 1-11 0-47-2-68-26-4-4-12-4-16 0-21 24-57 26-67 26-2 0-4-1-4-1-4 0-8 2-10 6-2 3-1 8 1 11 16 24 22 61 24 82l-81-28-12-27 53-21c5-3 8-9 6-14-8-21-2-51 17-88 28-56-1-103-2-105 0 0-1 0-1-1-64-74-42-157-34-181z"/>
<glyph unicode="&#57;" d="M142 400c-5 0-9 4-10 9-1 6 3 12 9 12 47 8 55 45 55 47 1 5 7 9 12 8 6-1 10-7 9-12 0-2-10-53-73-64-1 0-1 0-2 0z m28-400c-1 0-1 0-2 0l-96 12c-3 1-6 2-7 5-2 2-3 5-2 8l85 478c1 5 5 9 10 9l196 0c5 0 9-4 10-9l85-478c1-3 0-6-2-8-1-3-4-4-7-5l-96-12c-6-1-10 3-12 8l-76 294-76-294c-1-5-6-8-10-8z m-84 32l76-10 84 325c1 5 5 8 10 8 5 0 9-3 10-8l84-325 76 10-81 459-88-1c-1 0-1 0-2 0l-5 1-83 0z m284 368c-1 0-1 0-2 0-63 11-73 62-73 64-1 6 3 11 9 12 5 1 11-3 12-8 0-2 8-39 55-47 6 0 10-6 9-12-1-5-5-9-10-9z m-114 3c-6 0-11 5-11 11l0 84c0 5 5 10 11 10 6 0 11-5 11-10l0-84c0-6-5-11-11-11z"/>
<glyph unicode="&#33;" d="M425 0c-2 0-5 1-6 2-3 2-4 4-5 7l-34 197c-11-88 3-175 4-176 0-3-1-6-3-8-2-3-5-4-8-4l-234 0c-3 0-6 1-8 4-2 2-3 5-3 8 1 1 15 88 4 176l-34-197c-1-3-2-5-5-7-2-2-5-2-8-2l-76 15c-6 1-10 6-9 12l61 392c1 1 1 3 3 4 1 2 35 45 101 58 6 1 11-3 12-9 1-6-2-11-8-12-50-10-80-40-87-48l-59-378 56-11 42 244c1 5 5 8 10 8 6 0 10-3 11-7 25-90 14-193 9-229l210 0c-5 36-16 139 9 229 1 4 5 8 11 7 5 0 9-3 10-8l42-244 56 11-59 378c-7 8-37 38-87 48-6 1-9 6-8 12 1 6 6 10 12 9 66-13 100-56 101-58 2-1 2-3 3-4l61-392c1-6-3-11-9-12l-76-15c-1 0-2 0-2 0z m-285 337c-1 0-3 0-5 1-3 2-5 5-5 8-1 3-12 85 36 133 22 21 51 32 87 33 0 0 1 0 2 0 0 0 1 0 1 0l1 0c1 0 2 0 2 0 36-1 65-12 87-33 48-48 37-130 36-133 0-3-2-6-5-8-3-1-6-2-9 0l-86 34c-3 1-5 4-6 7-1 3-1 6 1 9 13 20 17 35 12 45-7 13-28 15-33 15-5 0-26-2-33-15-5-10-1-25 12-45 2-3 2-6 1-9-1-3-3-6-6-7l-86-34c-1-1-2-1-4-1z m116 154c-1 0-1 0-1 0-32-1-56-10-74-27-30-30-32-78-31-101l61 24c-12 23-14 41-7 56 12 23 42 26 51 27 1 0 1 0 2 0 9-1 39-4 51-27 7-15 5-33-7-56l61-24c1 23-1 71-31 101-18 17-42 26-74 27 0 0 0 0-1 0 0 0 0 0 0 0 0 0 0 0 0 0z m0-228c-5 0-9 3-10 7l-37 106c-2 5 1 11 6 13 6 2 12-1 14-6l27-77 27 77c2 5 8 8 14 6 5-2 8-8 6-13l-37-106c-1-4-5-7-10-7z m0-66c-6 0-11 5-11 10l0 8c0 6 5 11 11 11 6 0 11-5 11-11l0-8c0-5-5-10-11-10z m0-64c-6 0-11 5-11 11l0 8c0 6 5 10 11 10 6 0 11-4 11-10l0-8c0-6-5-11-11-11z m0-64c-6 0-11 5-11 11l0 8c0 6 5 11 11 11 6 0 11-5 11-11l0-8c0-6-5-11-11-11z"/>
<glyph unicode="&#34;" d="M256 424c-6 0-11 5-11 10l0 20c0 6 5 10 11 10 7 0 13 6 13 14 0 7-6 13-13 13-7 0-13-6-13-13 0-6-5-11-11-11-6 0-10 5-10 11 0 19 15 34 34 34 19 0 34-15 34-34 0-16-10-29-23-33l0-11c0-5-5-10-11-10z m0-69l-82 0c-19 0-32 5-38 16-11 16-2 37-1 39 1 3 3 5 6 6 3 1 6 0 8-1 20-10 73 9 102 24 5 3 12 1 14-5 3-5 1-11-4-14-8-4-70-35-109-28 0-3 0-7 1-9 3-5 10-7 21-7l82 0c6 0 11-5 11-10 0-6-5-11-11-11z m82 0l-82 0c-6 0-11 5-11 11 0 5 5 10 11 10l82 0c6 0 17 1 21 7 1 2 1 6 1 9-39-7-101 24-109 28-5 3-7 9-4 14 2 6 9 8 14 5 29-15 82-34 102-24 2 1 5 2 8 1 3-1 5-3 6-6 1-2 10-23-1-39-6-11-19-16-38-16z m-32-355l-100 0c-5 0-10 4-10 10l-26 355c0 3 1 6 3 8 2 2 5 3 8 3l150 0c3 0 6-1 8-3 2-2 3-5 3-8l-26-355c0-6-5-10-10-10z m-90 21l80 0 23 334-126 0z"/>
<glyph unicode="&#35;" d="M176 245c-1 0-2 1-3 1l-42 13c-5 2-8 8-7 13 2 6 8 9 14 7l31-10 25 88-51 13c-6 1-10 7-8 13 1 5 7 9 13 7l62-15c3-1 5-3 6-5 2-3 2-6 1-9l-31-108c0-3-2-5-5-6-1-1-3-2-5-2z m-26 173c-4 0-7 1-9 4-3 5-2 12 3 15 44 30 40 61 39 63 0 5 3 11 9 12 6 1 11-3 12-9 1-2 8-45-48-84-2-1-4-1-6-1z m252-418l-91 0c-5 0-10 4-11 9l-44 270-44-270c-1-5-6-9-11-9l-91 0c-3 0-6 1-8 3-2 3-3 6-3 9l47 490c1 6 5 10 11 10l198 0c6 0 10-4 11-10l47-490c0-3-1-6-3-9-2-2-5-3-8-3z m-82 21l71 0-46 470-178 0-46-470 71 0 53 326c1 5 6 9 11 9 5 0 10-4 11-9z m16 224c-2 0-4 1-5 2-3 1-5 3-5 6l-31 108c-1 3-1 6 1 9 1 2 3 4 6 5l62 15c6 2 12-2 13-7 2-6-2-12-8-13l-51-13 25-88 31 10c6 2 12-1 14-7 1-5-2-11-7-13l-42-13c-1 0-2-1-3-1z m26 173c-2 0-4 0-6 1-56 38-49 82-48 84 1 6 6 10 12 9 6-1 10-7 9-12-1-2-4-33 39-63 5-3 6-10 3-15-2-3-5-4-9-4z m-106-13c-6 0-11 5-11 11l0 85c0 6 5 11 11 11 6 0 11-5 11-11l0-85c0-6-5-11-11-11z"/>
<glyph unicode="&#36;" d="M290 0l-68 0c-2 0-4 1-6 2l-97 66c-3 2-4 5-4 9l0 55c0 6 4 11 10 11l262 0c6 0 10-5 10-11l0-55c0-4-1-7-4-9l-97-66c-2-1-4-2-6-2z m-65 21l62 0 89 61 0 40-240 0 0-40z m153 168l-243 0c-6 0-11 5-11 11l0 112-21-19c-4-3-10-3-14 0l-77 63c-4 3-5 9-2 14 75 132 154 142 177 142 3 0 4 0 4 0 4-1 8-4 9-8 9-35 51-39 56-40 6 1 47 5 56 40 1 4 5 7 9 8 0 0 1 0 4 0 23 0 102-10 177-142 3-5 2-11-2-14l-77-63c-4-3-10-3-14 0l-21 19 0-112c0-6-5-11-10-11z m-233 21l222 0 0 127c0 4 2 8 6 9 4 2 9 1 12-1l31-30 63 52c-64 108-128 122-149 123-17-43-71-47-73-47-1 0-1 0-2 0-2 0-56 4-73 47-21-1-85-15-149-123l63-52 31 30c3 2 8 3 12 1 4-1 6-5 6-9z"/>
<glyph unicode="&#37;" d="M270 0c-7 0-12 0-14 1-2-1-7-1-14-1-28 0-85 7-147 56-4 3-6 8-4 12l86 217c4 14 9 42 4 60l-47-127c-1-3-3-5-6-6-3-1-6-1-9 0l-46 21c-5 3-7 8-6 13l64 239c0 3 2 5 5 7l33 19c3 1 6 1 9 0 3-1 6-4 6-7 1-2 18-60 72-60 54 0 71 58 72 60 0 3 3 6 6 7 3 1 6 1 9 0l33-19c3-2 5-4 5-7l64-239c1-5-1-10-6-13l-46-21c-3-1-6-1-9 0-3 1-5 3-6 6l-47 127c-5-18 0-46 5-61l85-216c2-4 0-9-4-12-62-49-119-56-147-56z m-14 22c1 0 1 0 2 0 0 0 4-1 12-1 25 0 74 7 128 47l-83 209c-2 9-21 79 13 100 3 2 6 2 9 1 3-1 5-3 6-6l51-136 28 13-60 226-18 11c-12-27-40-63-88-63-48 0-76 36-88 63l-18-11-60-226 28-13 51 136c1 3 3 5 6 6 3 1 6 1 9-1 34-21 15-91 13-99l-83-210c54-40 103-47 128-47 8 0 12 1 12 1 1 0 1 0 2 0z"/>
<glyph unicode="&#38;" d="M259 0l-3 0-3 0c0 0-1 0-1 0-124 1-191 34-194 35-4 2-7 7-6 11 13 85 70 145 85 159l0 154c0 4 2 7 5 9 48 28 15 121 15 122-1 2-1 6 1 8 1 3 4 5 7 6l39 8c3 0 6 0 9-2 2-2 4-5 4-9 0-65 27-81 39-84 12 3 39 19 39 84 0 4 2 7 4 9 3 2 6 2 9 2l39-8c3-1 6-3 7-6 2-2 2-6 1-8 0-1-33-94 15-122 3-2 5-5 5-9l0-154c15-14 72-74 85-159 1-4-2-9-6-11-3-1-70-34-194-35 0 0-1 0-1 0z m-3 21l2 0c0 0 1 0 1 0 97 1 158 22 179 30-17 84-80 141-81 141-2 2-3 5-3 8l0 153c-45 32-30 104-22 132l-16 3c-4-75-45-90-58-93-1 0-3 0-4 0-13 3-54 18-58 93l-16-3c8-28 23-100-22-132l0-153c0-3-1-6-3-8-1 0-64-57-81-141 21-8 82-29 179-30 0 0 1 0 1 0z"/>
<glyph unicode="&#39;" d="M147 0c-25 0-59 9-76 55-33 82 46 144 47 145l104 84c0 32 2 171 37 223 3 4 7 6 11 5l171-31c3-1 5-3 7-5 1-3 2-6 1-9-1-2-51-163-41-243 10-82-39-103-50-106l-164-107c0-1 0-1-1-1-1-1-21-10-46-10z m126 490c-31-57-30-205-29-211 0-3-2-6-4-8 0 0 0 0 0-1l-109-87c-2-2-67-54-41-121 11-27 30-41 57-41 18 0 33 6 36 8l164 107c2 1 3 2 4 2 2 0 44 11 35 83-9 73 27 201 39 241z m65-383c-5 0-10 4-11 9-11 115 55 148 57 150 6 2 12 0 15-5 2-6 0-12-5-15-3-1-55-29-45-127 0-6-4-12-10-12 0 0-1 0-1 0z m-120-79c-4 0-9 3-10 8-32 98-118 104-119 104-5 1-10 6-10 12 1 5 6 10 12 10 1 0 101-8 137-120 2-6-1-12-7-13-1-1-2-1-3-1z m204 371c-1 0-1 0-2 0l-176 30c-6 1-10 7-9 12 1 6 7 10 13 9l175-30c6-1 10-6 9-12-1-5-5-9-10-9z"/>
<glyph unicode="&#40;" d="M355 0l-128 0c-3 0-5 1-7 3-2 2-3 5-3 8l0 298c0 6-4 54 16 88 19 32 41 107 42 107 1 4 3 7 7 8 3 1 7 0 10-3l31-27 53-23c2-1 4-3 5-6l85-193c1-3 1-6-1-9-1-3-4-5-7-5l-68-14c-5-1-9 1-12 5l-27 47 14-55c0-1 1-2 1-3l0-215c0-6-5-11-11-11z m-117 21l106 0 0 204-34 128c-1 5 2 10 7 12 5 3 10 1 13-4l63-107 48 10-78 177-50 22c-1 0-2 1-3 2l-20 17c-8-24-24-71-38-96-18-30-14-75-14-75 0-1 0-1 0-1z m-11 285c-2 0-5 1-7 3-4 4-4 11 0 15 80 85 87 149 87 150 0 5 5 10 11 9 6 0 11-5 10-11 0-3-7-72-93-162-2-3-5-4-8-4z m58-306l-128 0c-6 0-11 5-11 11l0 215c0 1 1 2 1 3l14 55-27-47c-3-4-7-6-12-5l-68 14c-3 0-6 2-7 5-2 3-2 6-1 9l85 193c1 3 3 5 6 6l52 23 31 27c3 3 7 4 10 3 4-1 6-4 7-8 1 0 14-45 29-80 2-5 0-12-6-14-5-2-12 0-14 6-10 23-19 50-24 66l-20-17c-1-1-2-2-3-2l-50-22-78-177 48-10 63 107c3 5 9 7 13 4 5-2 8-7 7-12l-34-128 0-204 117 0c6 0 10-4 10-10 0-6-4-11-10-11z m-51 370c-4 0-7 2-9 5-37 56-41 95-41 97-1 6 4 11 10 11 6 1 11-4 11-9 0-1 4-36 38-88 3-4 1-11-4-14-1-1-3-2-5-2z m99-85l-152 0c-6 0-11 5-11 11 0 6 5 11 11 11l152 0c6 0 10-5 10-11 0-6-4-11-10-11z m-73-81c-5 0-10 5-10 10l0 82c0 6 5 11 10 11 6 0 11-5 11-11l0-82c0-5-5-10-11-10z m39-97c-5 0-10 5-10 11l0 175c0 6 5 11 10 11 6 0 11-5 11-11l0-175c0-6-5-11-11-11z"/>
<glyph unicode="&#41;" d="M256 434c-6 0-11 4-11 10l0 17c0 6 5 10 11 10 5 0 10 5 10 10 0 5-5 10-10 10-5 0-10-5-10-10 0-6-4-11-10-11-6 0-11 5-11 11 0 17 14 31 31 31 17 0 31-14 31-31 0-13-8-25-20-29l0-8c0-6-5-10-11-10z m0-59l-70 0c-16 0-28 5-34 14-10 15-2 33-1 35 1 3 4 5 6 6 3 1 6 1 9-1 16-8 59 7 85 20 5 3 12 1 15-4 2-5 0-12-5-14-7-4-58-30-92-25 0-2 0-4 1-5 2-3 7-5 16-5l70 0c6 0 11-5 11-11 0-5-5-10-11-10z m70 0l-70 0c-6 0-11 5-11 10 0 6 5 11 11 11l70 0c9 0 14 2 16 5 1 1 1 3 1 5-34-5-85 21-92 25-5 2-7 9-4 14 2 5 9 7 14 4 24-12 69-28 85-20 3 2 6 2 9 1 3-1 5-3 6-6 1-2 9-20-1-35-6-9-18-14-34-14z m-10-375l-120 0c-6 0-11 5-11 11l0 172c0 3 2 5 3 7 2 1 30 32 10 71-27 51-12 75-11 77 1 1 1 1 2 1 1 1 27 27 67 27 40 0 66-26 67-27 1 0 1 0 2-1 1-2 16-26-11-77-20-38 8-69 10-71 1-2 3-4 3-7l0-172c0-6-5-11-11-11z m-109 21l98 0 0 158c-2 2-4 5-7 10-9 15-21 46-2 82 17 34 13 51 11 54-4 4-24 19-51 19-27 0-47-15-51-19-2-3-7-19 11-54 21-39 5-75-9-92z m0 312c-6 0-11 4-11 10l0 98c0 6 5 11 11 11 6 0 11-5 11-11l0-98c0-6-5-10-11-10z m98 0c-6 0-11 4-11 10l0 98c0 6 5 11 11 11 6 0 11-5 11-11l0-98c0-6-5-10-11-10z"/>
<glyph unicode="&#42;" d="M388 0c0 0 0 0-1 0l-262 0c-3 0-6 1-8 3-2 2-3 5-3 8 0 6 5 145 47 217 37 61 21 84 21 84 0 0-1 1-1 1-1 2-6 10-11 21l-35-97c-1-3-4-5-6-6-3-1-6-1-9 0l-54 25c-5 2-8 7-7 11 10 47 42 202 68 221 26 21 77 24 79 24 3 0 6-1 9-4 2-2 3-5 2-9-3-15-6-60 11-80 7-8 16-12 28-12 12 0 21 4 28 12 17 21 14 65 11 80-1 4 0 7 2 9 3 3 6 4 9 4 2 0 53-3 79-24 26-19 58-174 68-221 1-4-2-9-7-11l-54-25c-3-1-6-1-9 0-2 1-5 3-6 6l-35 97c-5-11-10-19-11-21-1-1-1-1-1-1 0 0-16-23 21-84 40-68 46-196 47-215 0-1 0-1 0-2 0-6-4-11-10-11z m-252 21l240 0c-2 34-11 140-44 196-42 70-24 102-19 108 8 12 18 36 14 49-2 6 1 12 7 14 5 2 11-1 13-7l47-126 36 17c-18 90-45 190-58 199-13 11-38 16-54 18 2-21 2-60-18-84-11-13-25-19-44-19-19 0-33 6-44 19-20 24-20 63-18 84-15-2-40-7-54-18-13-9-40-109-58-199l36-17 47 126c2 6 8 9 13 7 6-2 9-8 7-14-4-14 9-41 14-49 5-6 23-38-19-108-33-56-42-162-44-196z m120 450c-25 0-45 13-55 23-4 4-4 11 0 15 4 4 11 4 15 0 4-4 38-35 81 1 4 3 11 3 15-2 3-4 3-11-2-15-19-16-38-22-54-22z"/>
<glyph unicode="&#43;" d="M348 0l-184 0c-2 0-4 1-6 2l-5 3c-14 8-25 94 6 184 23 67 11 149 4 186l-38-41c-4-4-11-5-15-1l-47 37c-4 3-5 10-2 14l70 103c2 2 3 3 6 4l55 20c3 2 7 1 10-1 3-2 4-5 4-9 0-88 44-97 50-98 6 1 50 10 50 98 0 4 1 7 4 9 3 2 7 3 10 1l55-20c3-1 4-2 6-4l70-103c3-4 2-11-2-14l-47-37c-4-4-11-3-15 1l-38 41c-7-37-19-119 4-186 31-90 20-176 6-184l-5-3c-2-1-4-2-6-2z m-181 21l178 0c4 12 17 77-12 161-32 95-1 213 0 218 1 3 4 6 8 7 3 1 7 0 10-3l45-49 32 25-63 92-38 14c-6-99-68-104-70-104-1 0-1 0-2 0-2 0-64 5-70 104l-38-14-63-92 32-25 45 49c3 3 7 4 10 3 4-1 7-4 8-7 1-5 32-123 0-218-29-84-16-149-12-161z m147 470l-116 0c-5 0-10 4-10 10 0 6 5 11 10 11l116 0c6 0 10-5 10-11 0-6-4-10-10-10z"/>
<glyph unicode="&#44;" d="M222 0c-3 0-5 1-7 3l-98 88c-3 2-4 6-3 10l71 282-42 45c-3 3-4 8-2 12l28 66c2 3 6 6 10 6l86 0c4 0 8-3 10-6l28-66c2-4 1-9-2-12l-42-45 71-282c1-4 0-8-3-10l-98-88c-2-2-4-3-7-3z m-86 102l86-77 86 77-71 281c-1 4 0 8 2 10l42 45-23 53-72 0-23-53 42-45c2-2 3-6 2-10z m224 104c-1 0-3 1-4 1l-79 35c-6 2-8 8-6 14 3 5 9 8 14 5l71-30 17 31-118 64c-5 3-7 10-4 15 2 5 9 7 14 4l128-69c2-2 4-4 5-7 1-2 0-5-1-8l-27-49c-2-4-6-6-10-6z"/>
<glyph unicode="&#45;" d="M256 0l-117 0c-6 0-10 5-11 10l-3 181-38-167c-1-5-6-8-11-8l-65 0c-3 0-6 1-8 3-2 2-3 5-3 8 0 2 13 149 40 311 28 170 145 174 146 174 5 0 9-3 10-8l70-244c1-1 1-2 1-3l0-246c0-6-5-11-11-11z m-107 21l96 0 0 234-67 235c-24-4-96-27-117-155-22-136-35-260-39-298l46 0 55 243c1 6 6 9 11 9 6-1 10-5 10-11z m224-21l-117 0c-6 0-11 5-11 11l0 246c0 1 0 2 1 3l70 244c1 5 5 8 10 8 0 0 0 0 0 0 1 0 118-4 146-174 27-162 40-309 40-311 0-3-1-6-3-8-2-2-5-3-8-3l-65 0c-5 0-10 3-11 8l-38 167-3-181c0-5-5-10-11-10z m-106 21l96 0 5 257c0 6 4 10 10 11 5 0 10-3 11-9l55-243 46 0c-4 38-17 163-39 298-21 127-93 150-117 155l-67-235z"/>
<glyph unicode="&#46;" d="M426 0l-340 0c-6 0-11 5-11 11l0 320c0 3 2 6 4 8 58 47 40 142 40 143-1 5 1 10 6 12l43 17c5 2 9 1 12-3l76-89 76 89c3 4 8 5 12 3l43-17c5-2 7-7 6-12 0-1-18-96 40-143 2-2 4-5 4-8l0-320c0-6-5-11-11-11z m-329 21l319 0 0 305c-53 47-48 125-45 151l-28 12-79-94c-4-5-12-5-16 0l-79 94-28-12c3-26 8-104-45-151l0-305z"/>
<glyph unicode="&#47;" d="M196 0c-1 0-2 0-3 0-12 2-22 11-28 20-5-7-11-12-20-14-15-2-31 8-47 32-43 61 38 206 58 238l-39 90c-2 3-2 6 0 9 1 3 3 5 6 6 18 5 31 15 38 30 19 35 2 86 1 87-1 3 0 7 2 10 2 2 5 4 8 4l37 0c6 0 10-5 10-11 0-6-4-10-10-10l-23 0c5-21 10-59-6-90-8-17-22-29-39-37l36-84c2-3 1-7 0-10-28-46-93-175-62-220 12-18 22-24 26-23 6 1 12 13 14 19 1 5 5 8 10 8 4 0 9-3 10-7 3-10 12-25 20-26 7 0 15 8 25 22 2 4 6 6 10 5 4-1 8-4 9-8 0 0 6-19 17-19 6 0 11-4 11-10 0-6-5-11-11-11-13 0-23 8-29 17-10-11-20-17-31-17z m120 0c-11 0-21 6-31 17-6-9-16-17-29-17-6 0-11 5-11 11 0 6 5 10 11 10 11 0 17 19 17 19 1 4 5 7 9 8 4 1 8-1 10-5 10-14 18-22 25-22 8 1 17 16 20 26 1 5 6 8 10 7 5 0 9-3 10-8 2-6 8-18 14-19 4 0 14 5 26 23 31 45-34 174-62 220-1 3-2 7 0 10l36 84c-17 8-31 20-39 37-16 31-11 69-6 90l-23 0c-6 0-10 4-10 10 0 6 4 11 10 11l37 0c3 0 6-2 8-4 2-3 3-7 2-10-1-1-17-52 1-87 7-15 20-25 38-30 3-1 5-3 6-6 2-3 2-6 0-9l-38-90c19-32 100-177 57-238-16-24-32-34-47-32-9 2-15 7-20 14-6-9-15-18-28-20-1 0-2 0-3 0z m-60 403c-34 0-60 43-60 97 0 4 2 8 6 10 4 1 8 1 11-2 0 0 16-11 43-11 27 0 43 11 43 12 3 2 7 2 11 1 4-2 6-6 6-10 0-54-26-97-60-97z m-37 79c4-34 21-57 37-57 16 0 33 23 37 57-9-3-21-6-37-6-16 0-28 3-37 6z m36-306c-71 0-119 23-122 25-6 2-8 9-5 14 2 5 9 8 14 5 1-1 105-51 228 0 6 2 12 0 14-6 3-5 0-11-5-14-45-18-88-24-124-24z m0-93c-85 0-143 23-147 24-5 3-8 9-5 14 2 6 8 8 13 6 2 0 129-51 280 0 6 2 12-1 14-6 1-6-2-12-7-14-54-18-105-24-148-24z"/>
<glyph unicode="&#58;" d="M400 0l-288 0c-6 0-11 5-11 11l0 317c0 2 1 4 2 6 0 1 50 81 24 164-1 3 0 7 2 10 2 2 5 4 9 4l46 0c3 0 6-1 8-3 2-2 3-5 3-8 0-1-4-79 28-112 9-10 20-14 33-14 13 0 24 4 33 14 32 33 28 111 28 112 0 3 1 6 3 8 2 2 5 3 8 3l46 0c4 0 7-2 9-4 2-3 3-7 2-10-26-83 24-163 24-164 1-2 2-4 2-6l0-317c0-6-5-11-11-11z m-277 21l266 0 0 304c-8 15-46 86-28 166l-22 0c0-25-4-85-34-117-13-14-30-21-49-21-19 0-36 7-49 21-30 32-34 92-34 117l-22 0c18-80-20-151-28-166z m134 435c-1 0-2 0-3 0-43 1-72 37-74 39-3 4-3 11 2 15 5 3 11 3 15-2 0 0 25-30 58-31 21 0 41 10 61 32 4 4 10 4 15 0 4-4 4-11 0-15-23-25-48-38-74-38z"/>
<glyph unicode="&#59;" d="M199 0l-91 0c-3 0-7 1-9 4-2 3-2 6-2 9l58 249 0 26-10 29-72-162c-3-5-8-7-12-6l-52 10c-4 1-6 3-8 6-1 2-1 6 0 9l114 305c1 4 5 7 10 7l29 0 32 24c4 3 10 3 14-1 24-22 46-46 64-70 4-5 3-12-2-15-4-4-11-3-14 2-17 21-35 42-56 61l-29-20c-1-2-4-2-6-2l-25 0-107-287 32-7 79 179c2 4 6 6 10 6 5 0 8-3 10-7l20-55c0-1 0-3 0-4l0-29c0-1 0-2 0-3l-55-237 78 0c6 0 10-4 10-10 0-6-4-11-10-11z m16 358c-2 0-4 0-6 1l-27 18c-5 2-6 7-5 12l9 24-26-1c-6 0-11 4-11 10l-3 53c0 6 5 11 11 11 5 0 10-4 11-10l2-42 30 1c4 0 7-1 9-4 3-3 3-7 2-10l-11-31 21-13c5-3 6-9 3-14-2-4-5-5-9-5z m189-358l-217 0c-6 0-10 5-10 11l0 276c0 5 8 105 135 222 4 4 10 4 14 1l32-24 29 0c5 0 9-3 10-7l114-305c1-3 1-7 0-9-2-3-4-5-8-6l-52-10c-5-1-9 1-12 6l-72 162-10-29 0-26 58-249c0-3 0-6-2-9-3-3-6-4-9-4z m-206 21l193 0-55 237c0 1 0 2 0 3l0 29c0 1 0 3 0 4l20 55c2 4 5 7 10 7 4 1 8-2 10-6l80-179 31 7-107 287-25 0c-2 0-5 0-6 2l-28 20c-115-108-123-200-123-201z m-8 270c-4 0-7 1-9 5-3 5-2 11 3 14l128 80-11 31c-1 3-1 7 2 10 2 3 5 4 9 4l30-1 2 42c1 6 6 10 11 10 6 0 11-5 11-11l-3-53c0-6-5-10-11-10l-26 1 9-24c1-5 0-10-5-12l-135-85c-1-1-3-1-5-1z m154-27l-178 0c-6 0-11 5-11 11 0 6 5 11 11 11l178 0c6 0 11-5 11-11 0-6-5-11-11-11z"/>
<glyph unicode="&#60;" d="M426 0c0 0-1 0-1 0l-338 0c-4 0-7 2-9 4-2 3-3 7-1 10 41 121 97 321 83 376l-108-65c-4-3-10-2-14 2l-36 44c-3 4-3 11 1 15l133 123c2 2 5 3 7 3l67 0c5 0 10-4 11-10 2-26 13-80 35-80 22 0 33 54 35 80 1 6 6 10 11 10l67 0c2 0 5-1 7-3l133-123c4-4 4-11 1-15l-36-44c-4-4-10-5-14-2l-108 65c-14-55 41-253 83-374 1-2 1-3 1-5 0-6-4-11-10-11z m-325 21l310 0c-24 71-110 338-72 390 3 5 9 6 14 3l110-66 24 29-123 114-52 0c-4-26-16-90-56-90-40 0-52 64-56 90l-52 0-123-114 24-29 110 66c5 3 11 2 14-3 38-52-48-319-72-390z m156 456c-22 0-41 8-51 16-5 3-6 10-2 15 4 4 10 5 15 2 1-1 36-27 74 0 5 3 12 2 15-2 4-5 2-12-2-15-17-12-34-16-49-16z"/>
<glyph unicode="&#61;" d="M501 6l-200 0c-4 0-8 3-10 7l-35 97-35-97c-2-4-6-7-10-7l-200 0c-3 0-6 1-8 4-2 2-3 5-3 8l55 478c0 6 5 10 10 10l382 0c5 0 10-4 10-10l55-478c0-3-1-6-3-8-2-3-5-4-8-4z m-192 21l180 0-52 458-362 0-52-458 180 0 43 118c2 4 6 7 10 7 4 0 8-3 10-7z m137 360l-380 0c-6 0-11 4-11 10 0 6 5 11 11 11l380 0c6 0 11-5 11-11 0-6-5-10-11-10z"/>
<glyph unicode="&#62;" d="M256 0c-108 0-129 22-133 29-1 3-2 5-1 8l65 281c-20 15-44 49-23 93 23 50 10 85 9 86-1 4-1 7 1 10 2 3 5 5 9 5l25 0c4 0 7-2 9-5 13-19 36-15 37-15 6 1 12-3 12-9 1-6-2-11-8-12-2 0-34-6-55 20l-6 0c3-18 4-50-14-89-21-45 19-69 21-70 4-2 6-7 5-11l-65-283c8-4 34-17 112-17 6 0 11-4 11-10 0-6-5-11-11-11z m0 0c-6 0-11 5-11 11 0 6 5 10 11 10 77 0 104 12 112 17l-65 283c-1 4 1 9 5 11 4 3 41 26 21 70-18 39-17 71-14 89l-6 0c-21-26-53-20-55-20-6 1-10 6-9 12 1 6 7 10 13 9 1 0 24-4 37 15 2 3 5 5 9 5l25 0c4 0 7-2 9-5 2-3 2-6 1-10-1-1-14-36 9-86 21-44-3-78-23-93l65-281c1-3 0-5-1-8-4-7-25-29-133-29z m-156 356c-2 0-4 0-6 2-2 1-4 4-5 7l-15 92c-1 5 1 10 6 12l93 42c6 2 12 0 14-5 3-6 0-12-5-14l-86-39 12-73 58 16c5 1 11-2 13-8 1-5-2-11-8-13l-68-19c-1 0-2 0-3 0z m312 0c-1 0-2 0-3 0l-68 19c-6 2-9 8-8 13 2 6 8 9 13 8l58-16 12 73-86 39c-5 2-8 8-5 14 2 5 8 7 14 5l93-42c5-2 7-7 6-12l-15-92c-1-3-3-6-5-7-2-2-4-2-6-2z"/>
<glyph unicode="&#63;" d="M212 0l-201 0c-6 0-11 5-11 11l0 171c0 2 1 4 2 6 1 1 102 149 35 274-2 2-2 6-1 9 2 3 4 5 7 6l122 35c5 1 10-1 12-6 4-6 87-160 90-280l0-111c0-2-1-3-1-5l-44-103c-2-4-6-7-10-7z m-191 21l184 0 40 96 0 108c-2 101-66 231-82 264l-102-29c58-125-25-260-40-282z m167 270l-68 0c-6 0-11 4-11 10 0 6 5 11 11 11l68 0c6 0 11-5 11-11 0-6-5-10-11-10z m313-291l-201 0c-4 0-8 3-10 7l-44 103c0 2-1 3-1 5l0 110c3 121 86 275 90 281 2 5 7 7 12 6l122-35c3-1 5-3 7-6 1-3 1-7-1-9-67-125 34-273 35-274 1-2 2-4 2-6l0-171c0-6-5-11-11-11z m-194 21l184 0 0 157c-15 22-98 157-40 282l-102 29c-16-33-80-163-82-264l0-108z m85 270l-68 0c-6 0-11 4-11 10 0 6 5 11 11 11l68 0c6 0 11-5 11-11 0-6-5-10-11-10z m-143 184c-49 0-74 16-75 17-5 4-7 10-3 15 3 5 9 6 14 3 1 0 51-31 147 1 6 2 12-1 14-6 1-6-2-12-7-14-36-12-66-16-90-16z"/>
<glyph unicode="&#64;" d="M234 0c-42 0-98 3-122 20-3 2-4 6-4 10l19 165-40-113c-2-5-7-8-12-7l-66 12c-3 0-6 2-7 4-2 3-2 6-2 9l94 346c1 3 4 6 7 7l73 24 29 30 8-7 10-1c0 0-1-75 42-108 2-2 4-5 4-8l0-372c0-6-5-10-11-11 0 0-8 0-22 0z m-104 34c18-8 56-13 104-13 4 0 8 0 11 0l0 357c-30 26-40 69-43 97l-15-15c-1-1-3-2-4-2l-70-23-89-329 46-8 68 192c2 5 7 8 13 7 5-1 8-6 8-11z m123 285c-1 0-2 0-4 0-115 46-87 145-87 146 2 6 8 9 14 7 5-1 9-7 7-13-1-3-23-82 74-120 6-2 8-8 6-14-2-4-6-6-10-6z m25-319c-14 0-22 0-22 0-6 1-11 5-11 11l0 372c0 3 2 6 4 8 43 33 42 108 42 108l10 1 8 7 29-30 73-24c3-1 6-4 7-7l94-346c0-3 0-6-2-9-1-2-4-4-7-4l-66-12c-5-1-10 2-12 7l-40 113 19-165c1-4-1-8-4-10-24-17-80-20-122-20z m-11 21c3 0 7 0 11 0 48 0 86 5 104 13l-29 252c0 5 3 10 8 11 6 1 11-2 13-7l68-192 46 8-89 329-70 23c-1 0-3 1-4 2l-15 15c-3-28-13-71-43-97z m-8 298c-4 0-8 2-10 6-2 6 0 12 6 14 98 39 75 117 74 120-2 6 2 12 7 13 6 2 12-1 14-7 0-1 28-100-87-146-2 0-3 0-4 0z m37 172l-80 0c-6 0-11 4-11 10 0 6 5 11 11 11l80 0c6 0 11-5 11-11 0-6-5-10-11-10z"/>
<glyph unicode="&#91;" d="M219 114l-57 0c-6 0-11 5-11 11 0 6 5 11 11 11l57 0c6 0 11-5 11-11 0-6-5-11-11-11z m160-114l-246 0c-6 0-10 5-10 11l0 146-22-90c0-1-1-2-1-2l-19-43c-2-4-6-7-11-6l-49 3c-5 1-8 4-10 8l-11 45c0 1 0 3 0 5l67 305c1 3 3 6 7 7l94 35-29 13c-6 2-8 8-6 14 1 2 26 61 123 61 97 0 122-59 123-61 2-6 0-12-6-14l-29-13 94-35c4-1 6-4 7-7l67-305c0-2 0-4 0-5l-11-45c-2-4-5-7-10-8l-49-3c-5-1-9 2-11 6l-19 43c0 0-1 1-1 2l-22 90 0-146c0-6-4-11-10-11z m-235 21l224 0 0 225c0 5 4 10 9 10 6 1 11-3 12-8l43-175 15-36 35 3 8 34-65 297-114 43c-4 1-7 5-7 10 0 4 3 8 7 10l43 18c-11 14-38 39-98 39-60 0-87-25-98-39l43-18c4-2 7-6 7-10 0-5-3-9-7-10l-114-43-65-297 8-34 35-3 15 36 43 175c1 5 6 9 12 8 5 0 9-5 9-10l0-225z m206 93l-57 0c-6 0-11 5-11 11 0 6 5 11 11 11l57 0c6 0 11-5 11-11 0-6-5-11-11-11z m-94 233c-4 0-8 2-10 6 0 1-20 45-50 61-3 3-5 7-5 11 2 15 18 42 65 42 6 0 11-5 11-11 0-6-5-11-11-11-27 0-38-10-42-17 32-22 51-64 52-66 2-5 0-12-6-14-1-1-3-1-4-1z m0 0c-1 0-3 0-4 1-6 2-8 9-6 14 1 2 20 44 52 66-4 7-15 17-42 17-6 0-11 5-11 11 0 6 5 11 11 11 47 0 63-27 65-42 0-4-2-8-5-11-30-16-50-60-50-61-2-4-6-6-10-6z m0-337c-6 0-11 5-11 11l0 328c0 6 5 11 11 11 6 0 11-5 11-11l0-328c0-6-5-11-11-11z"/>
<glyph unicode="&#93;" d="M305 33c-3 0-6 1-8 4l-41 56-41-56c-2-3-7-5-11-4l-196 52c-6 2-9 8-8 13l86 373c1 5 5 8 10 8l320 0c5 0 9-3 10-8l86-373c1-5-2-11-8-13l-196-52c-1 0-2 0-3 0z m-49 89c3 0 7-2 9-4l45-62 179 47-82 355-302 0-82-355 179-47 45 62c2 2 6 4 9 4z m171 254l-342 0c-6 0-11 4-11 10 0 6 5 11 11 11l342 0c6 0 11-5 11-11 0-6-5-10-11-10z"/>
<glyph unicode="&#94;" d="M43 88c-9 0-16 1-22 4-7 4-11 10-13 17-1 7 0 17 2 28 1 8 2 16 2 21-1 10-3 19-6 29-2 6-3 12-5 18-3 17 1 33 4 47l2 7c2 7 1 15 0 24 0 6-1 13-1 20 1 16 6 28 11 38 3 6 5 12 7 18 3 9 2 18 1 27-1 9-2 19 0 28 0 5 4 9 9 9 37 6 95-23 122-43 29-21 65-47 79-84 2-5-1-12-7-14-5-2-11 1-13 7-12 31-43 54-71 74-24 17-69 39-99 40 0-5 1-10 1-15 1-11 2-22-1-34-2-8-5-15-8-21-5-10-9-19-9-30-1-7 0-12 0-18 1-10 2-20 0-31l-2-7c-3-13-6-25-4-38 1-6 3-11 4-16 3-11 6-21 7-34 0-7-1-16-2-25-1-7-3-17-2-21 0 0 0-1 2-2 12-6 55 5 80 15 36 15 73 37 107 65 4 4 11 3 15-2 4-4 3-11-2-15-36-29-73-52-112-68-2-1-45-18-76-18z m426 0c-31 0-74 17-76 18-39 16-76 39-112 68-5 4-6 11-2 15 4 5 10 6 15 2 34-28 71-50 107-65 25-10 68-21 80-15 2 1 2 2 2 2 1 4-1 14-2 21-1 9-2 18-2 25 1 13 4 23 6 34 2 5 3 10 5 16 2 13-1 25-4 38l-2 7c-2 11-1 21 0 31 0 6 1 11 0 17 0 12-4 21-9 31-3 6-6 13-8 21-3 12-2 23-1 34 0 5 1 10 1 15-30-1-75-23-99-40-28-20-59-43-71-74-2-6-8-9-13-7-6 2-9 9-7 14 14 37 50 63 79 84 27 20 85 49 122 43 5 0 9-4 9-9 2-9 1-19 0-28-1-9-2-18 1-27 2-6 4-12 7-18 5-10 10-22 11-38 0-7-1-14-1-20-1-9-2-17 0-24l2-7c3-14 7-30 4-47-2-6-3-12-5-18-3-10-5-19-6-29 0-5 1-13 2-21 2-11 3-21 2-28-2-7-6-13-13-17-6-3-13-4-22-4z m-202 78l-22 0c-33 0-61 25-61 55l0 32c0 30 28 54 61 54l22 0c33 0 61-24 61-54l0-32c0-30-28-55-61-55z m-22 120c-21 0-39-15-39-33l0-32c0-18 18-33 39-33l22 0c21 0 39 15 39 33l0 32c0 18-18 33-39 33z"/>
<glyph unicode="&#95;" d="M256 0l-146 0c-6 0-10 5-10 11l0 182c-2-4-6-7-10-7l-79 0c-6 0-11 5-11 11 0 8-1 214 80 268 61 41 94 47 108 47 4 0 6 0 7-1 5-1 8-5 8-10 0-3 4-34 53-34 6 0 11-4 11-10l0-446c0-6-5-11-11-11z m-135 21l124 0 0 425c-43 4-57 30-61 44-12-1-40-8-92-42-62-42-70-198-71-241l59 0 20 173c0 6 5 10 11 10 5-1 10-5 10-11l0-358z m281-21l-146 0c-6 0-11 5-11 11l0 446c0 6 5 10 11 10 51 0 53 33 53 34 0 5 3 9 8 10 1 1 3 1 7 1 14 0 47-6 108-47 81-54 80-260 80-268 0-6-5-11-11-11l-79 0c-4 0-8 3-10 7l0-182c0-6-4-11-10-11z m-135 21l124 0 0 358c0 6 5 10 10 11 6 0 11-4 11-10l20-173 59 0c-1 43-9 199-71 241-52 34-80 41-92 42-4-14-18-40-61-44z m-68 36l-89 0c-6 0-10 4-10 10l0 137c0 6 4 11 10 11l89 0c6 0 11-5 11-11l0-137c0-6-5-10-11-10z m-78 21l68 0 0 115-68 0z m281-21l-89 0c-6 0-11 4-11 10l0 137c0 6 5 11 11 11l89 0c6 0 11-5 11-11l0-137c0-6-5-10-11-10z m-79 21l68 0 0 115-68 0z"/>
<glyph unicode="&#96;" d="M244 7c-26 0-78 7-128 50-3 2-4 5-4 9l12 196-27-49 10-189c0-6-4-11-10-11l-71-6c-3 0-5 1-8 3-2 1-3 4-3 7l-15 201c0 1 0 3 1 4l83 218c1 3 4 6 7 7l80 16c5 1 10-1 12-5l35-71 31 26c3 3 8 3 12 2 3-2 6-6 6-10l0-387c0-5-4-10-10-10 0 0-5-1-13-1z m-110 63c46-38 93-41 111-42l0 354-23-20c-3-2-6-3-9-2-4 1-6 3-8 6l-38 75-65-14-81-210 14-188 50 4-9 182c0 2 0 4 1 6l51 93c2 4 7 7 12 5 5-1 8-6 8-11z m122 331c-4 0-7 2-9 5l-39 71-24-25c-5-4-11-4-16 0-4 4-4 11 0 15l35 35c2 2 6 3 9 3 4-1 6-3 8-6l45-82c3-5 1-12-4-15-1-1-3-1-5-1z m12-394c-8 0-13 1-13 1-6 0-10 5-10 10l0 387c0 4 3 8 6 10 4 1 9 1 12-2l31-26 35 71c2 4 7 6 12 5l80-16c3-1 6-4 7-7l83-218c1-1 1-3 1-5l-15-200c0-3-1-6-3-7-3-2-5-3-8-3l-71 6c-6 0-10 5-10 11l10 189-27 49 12-196c0-4-1-7-4-9-50-43-102-50-128-50z m-1 21c18 0 65 4 111 42l-14 238c0 5 3 10 8 11 5 2 10-1 12-5l51-93c1-2 1-4 1-6l-9-182 50-4 14 188-81 210-65 14-38-75c-2-3-4-5-7-6-4-1-7 0-10 2l-23 20z m-11 373c-2 0-3 0-5 1-5 3-7 10-4 15l45 82c2 3 5 5 8 6 3 0 7-1 9-3l35-35c4-4 4-11 0-15-5-4-11-4-16 0l-24 25-39-71c-2-3-5-5-9-5z"/>
<glyph unicode="&#123;" d="M59 181c-3 0-6 2-8 4l-48 49c-4 4-4 10-1 14l126 161c1 1 3 3 6 3l28 7 17 35c3 5 9 7 15 4 5-2 7-9 5-14l-20-39c-1-3-4-5-7-6l-30-7-117-150 34-35 96 87c5 4 11 3 15-1 4-5 4-11-1-15l-103-94c-2-2-5-3-7-3z m394 0c-2 0-5 1-7 3l-103 94c-5 4-5 10-1 15 4 4 10 5 15 1l96-87 34 35-117 151-32 9c-3 0-5 3-7 6l-15 37c-3 5 0 11 5 14 6 2 12-1 14-6l14-32 30-9c2 0 4-2 5-3l126-161c3-4 3-10-1-14l-48-49c-2-2-5-4-8-4z m-90-128l-214 0c-5 0-10 4-10 10l0 208c0 6 5 11 10 11 6 0 11-5 11-11l0-197 192 0 0 196c0 6 5 11 11 11 5 0 10-5 10-11l0-207c0-6-5-10-10-10z m-107 288c0 0 0 0-1 0-4 0-8 3-9 8l-8 31-57 62c-3 3-4 7-2 11 2 4 6 6 10 6l137 0c4 0 8-2 9-6 2-4 1-8-1-11l-57-63-11-31c-2-5-6-7-10-7z m-43 97l42-46c1-1 2-3 3-5l0 0 0 1c1 1 1 2 2 3l42 47z"/>
<glyph unicode="&#124;" d="M58 126c-2 0-5 0-6 2l-47 30c-5 3-6 10-4 14l114 215c3 5 9 7 15 5 5-3 7-10 4-15l-109-206 30-20 61 80c4 4 10 5 15 2 5-4 6-11 2-15l-67-88c-2-3-5-4-8-4z m198-51l-128 0c-5 0-10 5-10 11l0 143c0 1 0 2 0 4 27 71-3 144-3 145-2 4-1 9 3 12 2 2 45 38 83 42 1 0 36 5 55 5 6 0 11-5 11-11 0-6-5-10-11-10-18 0-52-5-53-5-22-3-51-21-66-32 8-22 25-87 2-152l0-131 117 0c6 0 11-4 11-10 0-6-5-11-11-11z m0 218c0 0 0 0 0 0-8 0-47 7-78 120-1 6 2 12 8 13 5 2 11-1 13-7 27-99 58-105 58-105 6 0 10-5 10-11 0-5-5-10-11-10z m198-167c-3 0-6 1-8 4l-67 88c-4 4-3 11 2 15 5 3 11 2 15-2l61-80 30 20-109 206c-3 5-1 12 4 15 6 2 12 0 15-5l114-215c2-4 1-11-4-14l-47-30c-1-2-3-2-6-2z m-70-51l-128 0c-6 0-11 5-11 11 0 6 5 10 11 10l117 0 0 131c-23 65-6 130 2 152-13 9-42 29-66 32-1 0-35 5-53 5-6 0-11 4-11 10 0 6 5 11 11 11 19 0 54-5 56-5 37-4 80-40 82-42 4-3 5-8 3-12 0-1-30-74-3-145 0-2 0-3 0-4l0-143c0-6-4-11-10-11z m-128 218c-6 0-10 5-11 10 0 6 5 11 10 11 2 1 32 9 58 105 2 6 8 9 13 7 6-1 9-7 8-13-31-113-70-120-78-120 0 0 0 0 0 0z"/>
<glyph unicode="&#125;" d="M59 85c-3 0-6 2-8 4l-48 55c-4 4-4 11 0 15l126 126c1 2 3 3 5 3l29 6 7 11c3 5 10 6 15 3 5-3 7-9 3-14l-9-16c-2-2-4-4-7-5l-31-5-116-117 35-40 95 83c5 4 12 4 15-1 4-4 4-11-1-15l-103-90c-2-2-5-3-7-3z m394 0c-2 0-5 1-7 3l-103 90c-5 4-5 11-1 15 3 5 10 5 15 1l95-83 35 40-117 117-31 7c-3 1-6 3-7 6l-9 17c-3 5-1 12 4 14 5 3 12 1 14-4l7-13 30-7c2 0 4-1 5-3l126-126c4-4 4-11 0-15l-48-55c-2-2-5-4-8-4z m-90-85l-214 0c-5 0-10 5-10 11l0 163c0 6 5 11 10 11 6 0 11-5 11-11l0-153 192 0 0 153c0 6 5 11 11 11 5 0 10-5 10-11l0-163c0-6-5-11-10-11z m-107 263c-65 0-117 56-117 124 0 69 52 125 117 125 65 0 117-56 117-125 0-68-52-124-117-124z m0 228c-53 0-96-47-96-104 0-57 43-103 96-103 53 0 96 46 96 103 0 57-43 104-96 104z m0-187c-37 0-67 32-67 71 0 39 30 70 67 70 37 0 67-31 67-70 0-39-30-71-67-71z m0 120c-25 0-45-22-45-49 0-27 20-50 45-50 25 0 45 23 45 50 0 27-20 49-45 49z m0-287c-6 0-11 4-11 10l0 165c0 5 5 10 11 10 6 0 11-5 11-10l0-165c0-6-5-10-11-10z m0-137c-6 0-11 5-11 11l0 71c0 5 5 10 11 10 6 0 11-5 11-10l0-71c0-6-5-11-11-11z m38 74l-77 0c-6 0-11 4-11 10l0 63c0 6 5 11 11 11l77 0c6 0 11-5 11-11l0-63c0-6-5-10-11-10z m-66 21l56 0 0 42-56 0z m-15 10l-60 0c-6 0-11 5-11 11 0 6 5 10 11 10l60 0c6 0 11-4 11-10 0-6-5-11-11-11z m146 0l-60 0c-6 0-11 5-11 11 0 6 5 10 11 10l60 0c6 0 11-4 11-10 0-6-5-11-11-11z"/>
<glyph unicode="&#126;" d="M131 313c0 0 0 0 0 0-6 0-11 5-10 11 2 93-22 158-22 159-2 5 1 11 6 13 6 2 12 0 14-6 1-3 26-69 23-167 0-6-5-10-11-10z m250-313l-250 0c-5 0-10 5-10 11l0 292-36-31c-2-2-5-2-7-2-3 0-6 1-8 4l-68 82c-3 4-3 10 0 14l95 126c2 2 4 3 7 4l71 12c3 0 6 0 8-2 3-2 4-4 5-7 0-3 10-69 68-70 58 1 68 67 68 70 1 3 2 5 5 7 2 2 5 2 8 2l71-12c3-1 5-2 7-4l95-127c3-3 3-9 0-13l-68-82c-2-3-5-4-8-4-2 0-5 0-7 2l-36 31 0-292c0-6-4-11-10-11z m-239 21l228 0 0 305c0 5 2 8 6 10 4 2 8 1 12-1l44-39 56 67-87 116-58 10c-7-31-33-76-87-77-54 1-80 46-87 77l-58-10-87-116 56-67 44 39c4 2 8 3 12 1 4-2 6-5 6-10l0-305z m239 292c-6 0-11 4-11 10-3 98 22 164 23 167 2 6 8 8 14 6 5-2 8-8 6-13 0-1-24-66-22-159 1-6-4-11-10-11 0 0 0 0 0 0z"/>
<glyph unicode="&#92;" d="M256 0c-114 0-183 39-186 40-2 2-4 4-5 7-1 3 0 6 2 9 75 108 49 270 49 272-1 4 0 7 3 9 68 68 23 135 21 138-2 2-3 6-2 9 1 3 4 6 7 7l60 20c6 2 12-1 14-7 1-5-2-11-7-13l-48-16c12-26 32-88-26-149 4-29 19-168-47-272 23-10 82-33 165-33 6 0 11-4 11-10 0-6-5-11-11-11z m0 0c-6 0-11 5-11 11 0 6 5 10 11 10 83 0 142 23 165 33-66 104-51 243-47 272-58 61-38 123-26 149l-48 16c-5 2-8 8-7 13 2 6 8 9 14 7l60-20c3-1 6-4 7-7 1-3 0-7-2-9-2-3-47-70 21-137 3-3 4-6 3-10 0-2-26-164 49-272 2-3 3-6 2-9-1-3-3-5-5-7-3-1-72-40-186-40z m0 400c-31 0-54 44-54 101 0 6 4 11 10 11 6 0 11-5 11-11 0-45 17-79 33-79 16 0 33 34 33 79 0 6 5 11 11 11 6 0 10-5 10-11 0-57-23-101-54-101z m0-400c-6 0-11 5-11 11l0 164c0 6 5 11 11 11 6 0 11-5 11-11l0-164c0-6-5-11-11-11z m-103 18c-1 0-2 0-3 0-6 2-9 8-7 14 1 1 28 76 30 151 0 5 5 10 11 10 6 0 11-5 10-11-2-78-29-154-31-157-1-5-5-7-10-7z m206 0c-5 0-9 2-10 7-2 3-29 79-31 157-1 6 4 11 10 11 6 0 11-5 11-10 2-75 29-150 30-151 2-6-1-12-7-14-1 0-2 0-3 0z"/>
<glyph unicode="&#57344;" d="M256 0c-62 0-117 34-119 36-3 2-4 5-5 8-16 140 44 234 57 252l0 14c-15 12-22 31-25 47l-23-37c22-136-33-169-35-170-2-1-3-2-5-2l-42 0c-4 0-8 3-10 6-37 74 17 173 26 187 30 142 110 169 113 170 3 1 6 1 9-1 3-1 5-4 5-7 8-62 46-75 54-77 8 2 46 15 54 77 0 3 2 6 5 7 3 2 6 2 9 1 3-1 83-28 113-170 9-14 63-113 26-187-2-3-6-6-10-6l-42 0c-2 0-3 1-5 2-2 1-57 34-35 170l-23 37c-3-16-10-35-25-47l0-14c13-18 73-112 57-252-1-3-2-6-5-8-2-2-57-36-119-36z m-103 51c13-7 56-30 103-30 47 0 90 23 103 30 15 141-54 234-55 235-1 2-2 4-2 7l0 22c0 3 2 7 5 9 25 17 22 65 22 65 0 5 3 10 8 11 4 2 10 0 12-4l42-69c1-2 2-4 2-7-19-108 13-143 22-150l31 0c28 67-27 161-28 162 0 1-1 2-1 3-21 99-67 137-88 150-15-71-69-80-71-80-1-1-3-1-4 0-2 0-56 9-71 80-21-13-67-51-88-150 0-1-1-2-1-3-1-1-56-95-28-162l31 0c8 7 41 42 22 150 0 3 0 5 2 7l42 69c2 4 7 6 12 4 5-1 8-6 8-11 0 0-3-48 22-65 3-2 5-6 5-9l0-22c0-3-1-5-2-7-1-1-70-94-55-235z"/>
<glyph unicode="&#57345;" d="M193 0c0 0-1 0-2 0l-150 24c-3 1-5 2-7 5-1 2-2 5-2 8l88 466c0 3 2 6 4 7 3 2 6 2 9 2 1-1 72-19 123-19 6 0 11-5 11-11 0-6-5-11-11-11-42 0-95 12-118 17l-83-444 130-21 61 244c1 5 7 9 13 7 5-1 9-7 7-12l-63-254c-1-5-5-8-10-8z m63 431c-63 0-133 18-136 19-6 1-9 7-8 13 2 6 7 9 13 8 1-1 71-19 131-19 6 0 11-5 11-11 0-6-5-10-11-10z m-73 14c-1 0-2 0-3 0-6 1-9 7-8 13l7 30c1 5 7 9 13 8 5-2 9-7 8-13l-7-30c-1-5-6-8-10-8z m-82-108c-4 0-8 2-9 6-3 5 0 11 5 14 73 33 71 82 71 84 0 6 4 11 10 11 6 0 11-4 11-10 0-3 4-65-83-104-2-1-3-1-5-1z m218-337c-5 0-9 3-10 8l-63 254c-2 5 2 11 7 12 6 2 12-2 13-7l61-244 130 21-84 444c-22-5-75-17-117-17-6 0-11 5-11 11 0 6 5 11 11 11 51 0 122 18 123 19 3 0 6 0 9-2 2-1 4-4 4-7l88-466c0-3-1-6-2-8-2-3-4-4-7-5l-150-24c-1 0-2 0-2 0z m-63 431c-6 0-11 4-11 10 0 6 5 11 11 11 60 0 130 18 131 19 6 1 11-2 13-8 1-6-2-12-8-13-3-1-73-19-136-19z m73 14c-4 0-9 3-10 8l-7 30c-1 6 3 11 9 13 5 1 11-3 12-8l7-30c1-6-3-12-8-13-1 0-2 0-3 0z m82-108c-2 0-3 0-5 1-87 39-83 101-83 104 0 6 5 10 11 10 6 0 10-5 10-11 0-2-1-51 71-84 5-3 8-9 5-14-1-4-5-6-9-6z m-155-15c-6 0-11 5-11 11l0 145c0 6 5 10 11 10 6 0 11-4 11-10l0-145c0-6-5-11-11-11z"/>
<glyph unicode="&#57346;" d="M256 0l-115 0c-6 0-10 5-10 11l0 299c0 5 3 9 8 11 0 0 57 18 40 179 0 3 1 6 3 8 2 3 5 4 8 4l28 0c5 0 10-4 10-9l6-48 22 0c6 0 11-5 11-11 0-6-5-11-11-11l-32 0c-5 0-10 4-10 10l-6 48-7 0c12-139-30-178-49-188l0-282 104 0c6 0 11-4 11-10 0-6-5-11-11-11z m-115 203c-5 0-10 4-10 9-1 6 3 11 9 12 76 10 71 76 71 79-1 6 4 11 10 11 6 1 11-3 11-9 0-1 8-90-89-102-1 0-1 0-2 0z m230-203l-115 0c-6 0-11 5-11 11 0 6 5 10 11 10l104 0 0 282c-19 10-61 49-49 188l-7 0-6-48c0-6-5-10-10-10l-32 0c-6 0-11 5-11 11 0 6 5 11 11 11l22 0 6 48c0 5 5 9 10 9l28 0c3 0 6-1 8-4 2-2 3-5 3-8-17-162 40-179 40-179 5-2 8-6 8-11l0-299c0-6-4-11-10-11z m0 203c-1 0-1 0-2 0-97 12-89 101-89 102 0 6 5 10 11 9 6 0 11-5 10-11 0-3-5-69 71-79 6-1 10-6 9-12 0-5-5-9-10-9z"/>
<glyph unicode="&#57347;" d="M256 0c-122 0-157 31-161 34-3 3-4 8-3 12l83 220-7 54-54-194c-1-6-7-9-13-8l-53 14c-6 1-9 6-8 12l64 337c1 4 3 7 7 8l61 22c3 2 7 1 10-1 32-27 72-19 72-19 6 1 11-3 12-9 2-5-2-11-8-12-2 0-46-9-84 19l-50-18-61-321 33-9 66 236c2 5 6 9 11 8 5 0 9-4 10-9l14-111c0-1 0-3-1-5l-81-214c14-8 53-25 141-25 6 0 11-4 11-10 0-6-5-11-11-11z m0 419c-62 0-87 49-91 75-1 6 3 11 9 12 6 1 11-3 12-9 1-2 11-57 70-57 6 0 11-4 11-10 0-6-5-11-11-11z m0-419c-6 0-11 5-11 11 0 6 5 10 11 10 88 0 127 17 141 25l-81 214c-1 2-1 4-1 5l14 111c1 5 5 9 10 9 5 1 9-3 11-8l66-236 33 9-61 321-50 18c-38-28-82-19-84-19-6 1-10 7-8 13 1 5 6 9 12 8 0 0 40-8 72 19 3 2 7 3 10 1l61-22c4-1 6-4 7-8l64-337c1-6-2-11-8-12l-53-14c-6-1-12 2-13 8l-54 194-7-54 83-220c1-4 0-9-3-12-4-3-39-34-161-34z m0 419c-6 0-11 5-11 11 0 6 5 10 11 10 60 0 69 55 70 57 1 6 6 10 12 9 6-1 10-6 9-12-4-26-29-75-91-75z"/>
<glyph unicode="&#57348;" d="M279 0l-46 0c-5 0-10 4-10 9-12 103-93 137-94 138-3 1-5 3-6 6-1 3-1 7 1 9 16 25 35 53 39 62-1 3-4 11-6 18-15 47-30 98-28 125 3 40 87 131 97 142 3 3 9 4 13 1 4-2 6-8 4-12-27-76-17-96-8-115 8-16 17-34 9-72-11-51 2-73 12-82 10 10 23 32 12 82-8 38 1 56 9 72 9 19 19 39-8 115-2 4 0 10 4 12 4 3 10 2 13-1 10-11 94-102 97-142 2-26-13-78-28-125-2-7-5-15-6-18 4-9 23-37 39-62 2-2 2-6 1-9-1-3-3-5-6-6-3-2-82-36-94-138 0-5-5-9-10-9z m-36 21l26 0c13 86 70 126 94 140-35 53-35 59-35 62 0 3 1 7 7 26 9 30 29 92 27 117-2 17-30 57-59 91 11-47 1-66-7-84-8-14-14-27-7-57 16-74-14-101-27-109-4-2-8-2-12 0-13 8-43 35-27 109 7 30 0 43-7 57-8 18-18 37-7 84-29-34-57-74-59-91-2-25 18-87 27-117 6-19 7-23 7-26 0-3 0-9-35-62 24-14 81-54 94-140z m26 275l-26 0c-6 0-11 4-11 10 0 6 5 11 11 11l26 0c6 0 11-5 11-11 0-6-5-10-11-10z"/>
<glyph unicode="&#57349;" d="M256 0c-169 0-247 36-250 37-4 2-6 5-6 9 0 4 2 8 6 10 31 17 140 141 161 218 5 16 5 28 0 36-36 62-17 111-16 113 1 4 5 7 9 7 2 0 63 5 105-56 3-5 2-12-3-15-5-3-11-2-15 3-27 40-63 46-78 47-3-14-7-48 17-89 7-12 8-30 2-52-19-69-107-178-155-218 31-10 104-29 223-29 6 0 11-4 11-10 0-6-5-11-11-11z m-77 409c-6 0-11 5-11 10l0 82c0 6 5 11 11 11 6 0 11-5 11-11l0-82c0-5-5-10-11-10z m77-409c-6 0-11 5-11 11 0 6 5 10 11 10 119 0 192 19 223 29-48 40-136 149-155 218-6 22-5 40 2 52 24 41 20 75 17 89-15-1-51-7-78-47-4-5-10-6-15-3-5 3-6 10-3 15 42 61 103 56 105 56 4 0 8-3 9-7 1-2 20-51-16-113-5-8-5-20 0-36 21-77 130-201 161-218 4-2 6-6 6-10 0-4-3-7-6-9-3-1-81-37-250-37z m77 409c-6 0-11 5-11 10l0 82c0 6 5 11 11 11 6 0 11-5 11-11l0-82c0-5-5-10-11-10z"/>
</font>
</defs>
</svg>
